2 сезон

iTunes

MVO

1

2 сезон

iTunes

iTunes

1 сезон

RePack

30

Новинка

ВАЖНО

ИГРА 18+

pack

RePack

MK11
pack

Легкие деньги

RePack

jed

RePack

fifa19

RePack

RDR2

RePack

NEED FOR SPEED™ PAYBACK

4 сезон

9 сезон

Бесстыжие 9 сезон

Все сериалы

все сериалы на PB.wtf

RePack

FAR CRY 5

Anonymous, доброй ночи, мы не успеваем собрать деньги на оплату серверов за декабрь и январь, помогите нам пожалуйста в это трудное время. В качестве благодарности мы отключим Вам всю рекламу на сайте (укажите свой ник в строку Ваше имя)!

×
  
Magnet ссылка

Польская сибириада / Syberiada polska (Януш Заорский / Janusz Zaorski) [2013, Польша, драма, мелодрама, военный, DVDRip, Профессиональный (одноголосый) Лицензия pb.wtf

Польская сибириада через торрент pb.wtf

Размер: 1.46 GB | Добавлен: 7 лет 3 мес. назад | Торрент скачан:971 раз
Скачать  

12-10-2013 11:06 Польская сибириада Скачать торрент  


Польская сибириада / Syberiada polska


  • Год выпуска:2013
  • Страна:Польша
  • Жанр:драма, мелодрама, военный, история

  • Продолжительность: 02:07:28
  • Перевод:Профессиональный (одноголосый)

  • Субтитры: Нет
    • Режиссер:Януш Заорский / Janusz Zaorski

  • В ролях:Адам Воронович (Jan Dolina), Агнешка Вендлоха (Cynia), Павел Круч (Stas Dolina), Андрей Журба (Савин), Соня Бохосевич (Irena Puc), Игорь Гнездилов (Styopa Barabanov), Ян Пешек (Korcz), Марцин Валевски (Tadzio Dolina), Валерия Гуляева (Любка), Наталья Рыбицкая (Sylwia), Уршула Грабовска (Antonina Dolina), Александр Крыжановский (Тартаковский)
    • Описание:
      Это рассказ о поляках, украинцах, евреях - жителях деревни Красный Яр. На их судьбы зрители смотрят глазами юного Сташека Долины, который попадает в Сибирь вместе с отцом, матерью и братом. Обстоятельства заставляют его переоценить свою жизнь, рано повзрослеть и принимать решения, ставкой которых будет жизнь его близких.
      Вместе со своими товарищами по несчастью он начинает тяжёлую борьбу за выживание, в которой самым опасным противником будет не террор НКВД, а безжалостная природа. Жгучие морозы зимой и тучи мошкары летом, смертельный голод и бушующие эпидемии болезней. Единственный шанс всё это пережить - помощь друг другу.
      Несмотря на национальные различия, поляки, евреи, украинцы, буряты, чеченцы вынуждены вместе сопротивляться выпавшим на их долю испытаниям...

    • Качество:DVDRip
    • Формат:AVI
    • Видео кодек: XviD
    • Аудио кодек:AC3
    • Видео: XviD, 720x400 (16:9), 1177 kbps, 25 fps, 0,164 bpp
    • Аудио: AC3 / 5.1 / 48 kHz / 448 kbps / 16 bit

    General
    Complete name : D:ТорентыPolskaja.sibiriada.2013.P1.DVDRip.1.46.avi
    Format : AVI
    Format/Info : Audio Video Interleave
    File size : 1.46 GiB
    Duration : 2h 7mn
    Overall bit rate : 1 635 Kbps
    Writing application : VirtualDubMod 1.5.10.3 | www.virtualdub-fr.org || (build 2550/release)
    Writing library : VirtualDubMod build 2550/release

    Video
    ID : 0
    Format : MPEG-4 Visual
    Format profile : Advanced Simple@L5
    Format settings, BVOP : 1
    Format settings, QPel : No
    Format settings, GMC : No warppoints
    Format settings, Matrix : Custom
    Codec ID : XVID
    Codec ID/Hint : XviD
    Duration : 2h 7mn
    Bit rate : 1 178 Kbps
    Width : 720 pixels
    Height : 400 pixels
    Display aspect ratio : 16:9
    Frame rate : 25.000 fps
    Color space : YUV
    Chroma subsampling : 4:2:0
    Bit depth : 8 bits
    Scan type : Progressive
    Compression mode : Lossy
    Bits/(Pixel*Frame) : 0.164
    Stream size : 1.05 GiB (72%)
    Writing library : XviD 1.2.1 (UTC 2008-12-04)

    Audio
    ID : 1
    Format : AC-3
    Format/Info : Audio Coding 3
    Mode extension : CM (complete main)
    Codec ID : 2000
    Duration : 2h 7mn
    Bit rate mode : Constant
    Bit rate : 448 Kbps
    Channel(s) : 6 channels
    Channel positions : Front: L C R, Side: L R, LFE
    Sampling rate : 48.0 KHz
    Bit depth : 16 bits
    Compression mode : Lossy
    Stream size : 408 MiB (27%)
    Alignment : Split accross interleaves
    Interleave, duration : 40 ms (1.00 video frame)
    Interleave, preload duration : 500 ms

    © Оформление by Vetal
    pb.wtf



  • Скачать Польская сибириада через торрент http://i58.fastpic.ru/big/2013/0922/31/4683bcd4960801b02604b79f43d30631.png Скачать фильм Польская сибириада через торрент бесплантно в хорошем качестве Описание:Это рассказ о поляках, украинцах, евреях - жителях деревни Красный Яр. На их судьбы зрители смотрят глазами юного Сташека Долины, ... 9.5 10 32
    Info! Золотая раздача, скачанное не засчитывается.
    Торрент: Зарегистрирован [2013-10-12 11:06] · скачан: 971 раз
    Статус: √ проверено
    Размер: 1.46 GB
    Как cкачать? Как скачать Польская сибириада через торрент | UTorrent

    % Раздел Тема Автор DL S | L
    Фильмы 2013 [DVDrip, WEB-DLRip, HDrip] [ 2.05 GB ] Польская Сибириада / Syberiada Polska [2013 военный история DVDRip-AVC] VO mihis Скачать
    1 | 0

    28-11-2019 20:33  

    Отключить всю рекламу на сайте

    16-10-2013 12:44 Польская сибириада Скачать торрент  

    можно глянутьpb.wtf



    17-10-2013 14:30 Польская сибириада Скачать торрент  

    Норм фильм.pb.wtf



    23-10-2013 16:17 Польская сибириада Скачать торрент  

    не смотрел но чушь полная наверняка. в гулаге больше русских сидело а тут про них и не слова как будто тока одних поляков садили . бред полнейший переписывание историиpb.wtf



    27-10-2013 15:35 Польская сибириада Скачать торрент  

    посмотрел....пахнет русофобией... в топку фильм pb.wtf



    10-11-2013 03:52 Польская сибириада Скачать торрент  

    Предлагаю саботировать просмотр данного видео... pb.wtf



    10-11-2013 10:02 Польская сибириада Скачать торрент  

    ViktorYago писал(а):

    посмотрел....пахнет русофобией... в топку фильм

    А что ты хотел: "Страна:Польша". Там сейчас какая то эйфория и мода на русофобию :(pb.wtf



    05-12-2013 17:22 Польская сибириада Скачать торрент  

    Хватило описания фильма, обычно только читаю.
    Но здесь не удержался, такое выкладывать - себя не уважать, либо надо писать крупными красными буквами, что фильм ПРОТИВ РУССКИХ.
    Извините.....наболело pb.wtf



    06-12-2013 13:41 Польская сибириада Скачать торрент  

    ФИЛЬМ АНТИ РУССКИЙ!!! Да и фуфло полное...........pb.wtf



    07-12-2013 14:23 Польская сибириада Скачать торрент  

    Давно мы их не присоединяли к России. Соскучились по намpb.wtf



      Дорогой пользователь! Огромная просьба, поблагодарите релизера, оцените раздачу и оставьте свои комментарий, если Вы скачали Польская сибириада через торрент бесплатно! Внесите свою лепту в развитие PiratBit!
      Комментировать посты могут только пользователи прошедшие не сложную регистрацию
      Показать сообщения:    

      Польская сибириада через торрент
      Скачать бесплатно Польская сибириада
      Польская сибириада скачать торрент
      Польская сибириада смотреть онлайн
      Cкачать фильм Польская сибириада бесплатно
      Польская сибириада скачать торрент в хорошем качестве
      Польская сибириада смотреть онлайн бесплатно в хорошем качестве


      Вы не можете начинать темы
      Вы не можете отвечать на сообщения
      Вы не можете редактировать свои сообщения
      Вы не можете удалять свои сообщения
      Вы не можете голосовать в опросах
      Вы не можете прикреплять файлы к сообщениям
      Вы можете скачивать файлы