2 сезон

iTunes

MVO

1

2 сезон

iTunes

iTunes

1 сезон

RePack

30

Ultimate

ВАЖНО

ИГРА 18+

pack

RePack

MK11
pack

Легкие деньги

RePack

jed

RePack

fifa19

RePack

RDR2

RePack

NEED FOR SPEED™ PAYBACK

4 сезон

9 сезон

Бесстыжие 9 сезон

Все сериалы

все сериалы на PB.wtf

RePack

FAR CRY 5

Anonymous, добрый вечер, мы не успеваем собрать деньги на оплату серверов за декабрь и январь, помогите нам пожалуйста в это трудное время. В качестве благодарности мы отключим Вам всю рекламу на сайте (укажите свой ник в строку Ваше имя)!

×
  
Magnet ссылка

Польская Сибириада / Syberiada Polska (Януш Заорский) [2013 г., Драма, мелодрама, военный, история, DVDRip-AVC] VO Лицензия pb.wtf

Польская Сибириада через торрент pb.wtf

Размер: 2.05 GB | Добавлен: 7 лет 3 мес. назад | Торрент скачан:214 раз
Скачать  

12-10-2013 13:53 Польская Сибириада Скачать торрент  

Польская Сибириада / Syberiada Polska
Год выпуска: 2013
Страна: Польша, ATM Grupa S.A., Ekoland, Hero Collection, Heliograf, PAY Studio, Polish Film Institute, Satchwell Warszawa
Жанр: Драма, мелодрама, военный, история
Продолжительность: 02:07:28
Перевод: Профессиональный (одноголосый) Лицензия
Субтитры: нет

Режиссер: Януш Заорский

В ролях: Адам Воронович, Соня Бохосевич, Андрий Журба, Павел Круч, Игорь Гнездилов, Наталья Рыбицка, Ян Пешек, Агнешка Вендлоха, Лера Гуляева, Дмитро Сова, Марчин Валевски, Уршула Грабовска, Александр Крижановский, Жанна Герасимова, Ярослав Груда, Лех Дыблик

Описание: Это рассказ о поляках, украинцах, евреях — жителях деревни Красный Яр. На их судьбы зрители смотрят глазами юного Сташека Долины, который попадает в Сибирь вместе с отцом, матерью и братом. Обстоятельства заставляют его переоценить свою жизнь, рано повзрослеть и принимать решения, ставкой которых будет жизнь его близких.
Вместе со своими товарищами по несчастью он начинает тяжёлую борьбу за выживание, в которой самым опасным противником будет не террор НКВД, а безжалостная природа. Жгучие морозы зимой и тучи мошкары летом, смертельный голод и бушующие эпидемии болезней. Единственный шанс всё это пережить — помощь друг другу.
Несмотря на национальные различия, поляки, евреи, украинцы, буряты, чеченцы вынуждены вместе сопротивляться выпавшим на их долю испытаниям…



Качество: DVDRip-AVC
Формат: MKV
Видео кодек: H.26x
Аудио кодек: AC3
Видео: AVC, 716x572@1018x572 (16:9), 25.000 fps, 1 848 Kbps (0.180 bit/pixel)
Аудио: AC-3, 48.0 KHz, 6 ch, 448 Kbps, CBR
Общее
Уникальный идентификатор : 178631353218227838445031885958296967866 (0x866325B00265F473A892AD787D311ABA)
Полное имя : D:VideoPolskaja.sibiriada.2013.DVDRip.(AVC).mkv
Формат : Matroska
Версия формата : Version 4 / Version 2
Размер файла : 2,05 Гбайт
Продолжительность : 2 ч. 7 м.
Общий поток : 2297 Кбит/сек
Дата кодирования : UTC 2013-10-12 07:03:55
Программа кодирования : mkvmerge v6.4.1 ('Omega Point') built on Sep 16 2013 22:05:10
Библиотека кодирования : libebml v1.3.0 + libmatroska v1.4.1

Видео
Идентификатор : 1
Формат : AVC
Формат/Информация : Advanced Video Codec
Профиль формата : High@L4.1
Параметр CABAC формата : Да
Параметр ReFrames формата : 9 кадров
Идентификатор кодека : V_MPEG4/ISO/AVC
Продолжительность : 2 ч. 7 м.
Битрейт : 1848 Кбит/сек
Ширина : 716 пикселей
Высота : 572 пикселя
Соотношение сторон : 16:9
Режим частоты кадров : Постоянный
Частота кадров : 25,000 кадров/сек
Цветовое пространство : YUV
Субдискретизация насыщенности : 4:2:0
Битовая глубина : 8 бит
Тип развёртки : Прогрессивная
Бит/(Пиксели*Кадры) : 0.180
Размер потока : 1,61 Гбайт (79%)
Библиотека кодирования : x264 core 138 r2358 9e941d1
Настройки программы : cabac=1 / ref=9 / deblock=1:-2:-1 / analyse=0x3:0x133 / me=umh / subme=8 / psy=1 / psy_rd=1.00:0.10 / mixed_ref=1 / me_range=24 / chroma_me=1 / trellis=2 / 8x8dct=1 / cqm=0 / deadzone=21,11 / fast_pskip=0 / chroma_qp_offset=-3 / threads=12 / lookahead_threads=4 / sliced_threads=0 / nr=0 / decimate=1 / interlaced=0 / bluray_compat=0 / constrained_intra=0 / bframes=8 / b_pyramid=2 / b_adapt=2 / b_bias=0 / direct=3 / weightb=1 / open_gop=0 / weightp=2 / keyint=250 / keyint_min=25 / scenecut=40 / intra_refresh=0 / rc=2pass / mbtree=0 / bitrate=1848 / ratetol=1.0 / qcomp=0.60 / qpmin=0 / qpmax=69 / qpstep=4 / cplxblur=20.0 / qblur=0.5 / ip_ratio=1.40 / pb_ratio=1.30 / aq=1:1.00
Язык : Polish
Default : Да
Forced : Нет

Аудио
Идентификатор : 2
Формат : AC-3
Формат/Информация : Audio Coding 3
Расширение режима : CM (complete main)
Параметр Endianness формата : Big
Идентификатор кодека : A_AC3
Продолжительность : 2 ч. 7 м.
Вид битрейта : Постоянный
Битрейт : 448 Кбит/сек
Каналы : 6 каналов
Расположение каналов : Front: L C R, Side: L R, LFE
Частота : 48,0 КГц
Битовая глубина : 16 бит
Метод сжатия : С потерями
Размер потока : 408 Мбайт (20%)
Язык : Russian
Default : Да
Forced : Нет

Меню
00:00:00.000 : :Chapter 01
00:06:44.160 : :Chapter 02
00:12:41.760 : :Chapter 03
00:20:37.440 : :Chapter 04
00:29:41.760 : :Chapter 05
00:37:13.920 : :Chapter 06
00:44:17.760 : :Chapter 07
00:51:50.400 : :Chapter 08
01:00:11.520 : :Chapter 09
01:07:19.200 : :Chapter 10
01:14:40.320 : :Chapter 11
01:22:45.120 : :Chapter 12
01:31:07.680 : :Chapter 13
01:39:58.560 : :Chapter 14
01:52:15.360 : :Chapter 15
01:59:51.840 : :Chapter 16
02:07:27.840 : :Chapter 17
pb.wtf



Скачать Польская Сибириада через торрент https://pic.kartinco.top/images/4/g2oiw.jpg Скачать фильм Польская Сибириада через торрент бесплантно в хорошем качестве Описание: Это рассказ о поляках, украинцах, евреях — жителях деревни Красный Яр. На их судьбы зрители смотрят глазами юного Сташека Долины, ... 9.1 10 11
Info! Золотая раздача, скачанное не засчитывается.
Торрент: Зарегистрирован [2013-10-12 13:53] · скачан: 214 раз
Статус: √ проверено
Размер: 2.05 GB
Как cкачать? Как скачать Польская Сибириада через торрент | UTorrent

28-11-2019 20:33  

Отключить всю рекламу на сайте

13-10-2013 16:02 Польская Сибириада Скачать торрент  

Пшеки как всегда в своем репертуаре... Пока их всех не перебьешь будут подобные истории точить, потому что больше не знают чего придуматьpb.wtf



14-10-2013 12:55 Польская Сибириада Скачать торрент  

ev1177 писал(а):

Пшеки как всегда в своем репертуаре... Пока их всех не перебьешь будут подобные истории точить, потому что больше не знают чего придумать

slis ty psek ti pochodu dumajes sto tolko ty celavek odin na svete? tak rot zakroi i svajo mnenje astav pri sibe lasharapb.wtf



    Дорогой пользователь! Огромная просьба, поблагодарите релизера, оцените раздачу и оставьте свои комментарий, если Вы скачали Польская Сибириада через торрент бесплатно! Внесите свою лепту в развитие PiratBit!
    Комментировать посты могут только пользователи прошедшие не сложную регистрацию
    Показать сообщения:    

    Польская Сибириада через торрент
    Скачать бесплатно Польская Сибириада
    Польская Сибириада скачать торрент
    Польская Сибириада смотреть онлайн
    Cкачать фильм Польская Сибириада бесплатно
    Польская Сибириада скачать торрент в хорошем качестве
    Польская Сибириада смотреть онлайн бесплатно в хорошем качестве


    Вы не можете начинать темы
    Вы не можете отвечать на сообщения
    Вы не можете редактировать свои сообщения
    Вы не можете удалять свои сообщения
    Вы не можете голосовать в опросах
    Вы не можете прикреплять файлы к сообщениям
    Вы можете скачивать файлы