MEGA SALE -50% FORZA HORIZON 4 ULTIMATE+ВСЕ DLC+ОНЛАЙН всего за 599р. 299 руб. (супер цена). Внимание количество ограничено!!!

iTunes

1+1

iTunes

мы

iTunes

1

iTunes

Чернобыль

iTunes

Ральф против интернета

Лицензия

ПШазам

Лицензия

Игра престолов

Лицензия

30
pack

ВАЖНО

!!Акция!!

Alien_RageХит недели

RePack

Resident Evil 21

ИГРА 18+

pack

RePack

Metro:Exodus

!!Акция!!

Alien_Rage

RePack

fifa19

RePack

Assassins Creed: Odyssey

RePack

NEED FOR SPEED™ PAYBACK

3 сезон

9 сезон

Бесстыжие 9 сезон

Все сериалы

все сериалы на PB.wtf

RePack

FAR CRY 5
Ребята, катастрофически не хватает 7730р. для оплаты серверов за АВГУСТ (всвязи с блокировками трафик упал в 3 раза), 1-2р., выручайте.
  

Перевал Тени / Тень / Shadow (Федерико Дзампальоне / Federico Zampaglione) [2009, Италия, ужасы, триллер , HDRip , MVO , VO , Original] pb.wtf

Перевал Тени через торрент pb.wtf

Размер: 1.45 GB | Добавлен: 5 лет 11 мес. назад | Торрент скачан:135 раз
Скачать  

13-10-2013 11:05 Перевал Тени Скачать торрент  

Тень / Shadow


Слоган: «Reality Can Be Sicker Than Nightmares»
Год выпуска: 2009
Страна: Италия
Жанр: ужасы
Продолжительность: 01:14:28
Перевод: Любительский (одноголосый) (zamez) + Профессиональный (многоголосый, закадровый) + Оригинальный

Режиссер: Федерико Дзампальоне / Federico Zampaglione
В ролях: Джэйк Максворфи (David), Карина Теста (Angeline), Нуот Аркуинт (Mortis), Крис Коппола (Buck), Оттавиано Блитч (Fred), Мэтт Патрези (U.S. Lieutenant), Эмилио Де Марчини (Doctor), Дзанпьеро Коньоли (Customer)

Описание: Молодой солдат после очередной операции в Ираке решает отдохнуть. Познакомившись с молодой девушкой, и продолжив путешествие вместе, они предстают перед лицом такого ужаса, который Дэвиду не приходилось видеть даже во время его службы.

Рейтинг
kinopoisk.ru: 5.514 (257)
imdb.com: 5.30 (1466)
Мировая премьера: 28 августа 2009

  • Качество: HDRip
  • Формат: AVI
  • Видео кодек: XviD
  • Аудио кодек: AC3
  • Видео: XviD, 720x304 (2.35:1), 1696 kbps, 25 fps, 0,310 bpp
  • Аудио №1: AC3 / 2.0 / 48 kHz / 192 kbps / 16 bit Russian: (MVO)
  • Аудио №2: AC3 / 5.1 / 48 kHz / 448 kbps / 16 bit Russian: (zamez)
  • Аудио №3: AC3 / 5.1 / 48 kHz / 448 kbps / 16 bit English
    Format : AVI
    Format/Info : Audio Video Interleave
    Format profile : OpenDML
    Format settings : rec
    File size : 1.45 GiB
    Duration : 1h 14mn
    Overall bit rate : 2 794 Kbps
    Writing application : AVI-Mux GUI 1.17.8.3, Feb 16 201019:42:50

    Video
    ID : 0
    Format : MPEG-4 Visual
    Format profile : Advanced Simple@L5
    Format settings, BVOP : 2
    Format settings, QPel : No
    Format settings, GMC : No warppoints
    Format settings, Matrix : Default (MPEG)
    Codec ID : XVID
    Codec ID/Hint : XviD
    Duration : 1h 14mn
    Bit rate : 1 696 Kbps
    Width : 720 pixels
    Height : 304 pixels
    Display aspect ratio : 2.35:1
    Frame rate : 25.000 fps
    Color space : YUV
    Chroma subsampling : 4:2:0
    Bit depth : 8 bits
    Scan type : Progressive
    Compression mode : Lossy
    Bits/(Pixel*Frame) : 0.310
    Stream size : 903 MiB (61%)
    Writing library : XviD 1.2.1 (UTC 2008-12-04)

    Audio #1
    ID : 1
    Format : AC-3
    Format/Info : Audio Coding 3
    Mode extension : CM (complete main)
    Codec ID : 2000
    Duration : 1h 14mn
    Bit rate mode : Constant
    Bit rate : 192 Kbps
    Channel(s) : 2 channels
    Channel positions : Front: L R
    Sampling rate : 48.0 KHz
    Bit depth : 16 bits
    Compression mode : Lossy
    Stream size : 102 MiB (7%)
    Alignment : Aligned on interleaves
    Interleave, duration : 64 ms (1.60 video frames)
    Interleave, preload duration : 192 ms
    Title : 1

    Audio #2
    ID : 2
    Format : AC-3
    Format/Info : Audio Coding 3
    Mode extension : CM (complete main)
    Codec ID : 2000
    Duration : 1h 14mn
    Bit rate mode : Constant
    Bit rate : 448 Kbps
    Channel(s) : 6 channels
    Channel positions : Front: L C R, Side: L R, LFE
    Sampling rate : 48.0 KHz
    Bit depth : 16 bits
    Compression mode : Lossy
    Stream size : 239 MiB (16%)
    Alignment : Aligned on interleaves
    Interleave, duration : 64 ms (1.60 video frames)
    Interleave, preload duration : 192 ms
    Title : 2

    Audio #3
    ID : 3
    Format : AC-3
    Format/Info : Audio Coding 3
    Mode extension : CM (complete main)
    Codec ID : 2000
    Duration : 1h 14mn
    Bit rate mode : Constant
    Bit rate : 448 Kbps
    Channel(s) : 6 channels
    Channel positions : Front: L C R, Side: L R, LFE
    Sampling rate : 48.0 KHz
    Bit depth : 16 bits
    Compression mode : Lossy
    Stream size : 239 MiB (16%)
    Alignment : Aligned on interleaves
    Interleave, duration : 64 ms (1.60 video frames)
    Interleave, preload duration : 192 ms
    Title : 3

    Text #1
    ID : 4
    Stream size : 28.9 KiB (0%)
    Title : 1

    Text #2
    ID : 5
    Stream size : 9.15 KiB (0%)
    Title : 2
    Сэмпл / Трейлер pb.wtf



  • Скачать Перевал Тени через торрент http://i5.imageban.ru/out/2013/10/13/26b0f41a11bd9aea5dfab95ceabe6d9a.png Скачать фильм Перевал Тени через торрент бесплантно в хорошем качестве Описание: Молодой солдат после очередной операции в Ираке решает отдохнуть. Познакомившись с молодой девушкой, и продолжив путешествие ... 10 10 11
    Info! Золотая раздача, скачанное не засчитывается.
    Торрент: Зарегистрирован [2013-10-13 11:05] · скачан: 135 раз
    Статус: √ проверено
    Размер: 1.45 GB
    Как cкачать? Как скачать Перевал Тени через торрент | qTorrent

    % Раздел Тема Автор DL S | L
    Фильмы 2009 [ 1.84 GB ] Перевал Тени / Тень / Shadow [2009 Италия HDRip] VO Voiz + VO zamez + original eng + Sub rus Ворон Скачать
    1 | 0


    >> Регистрируемся здесь <<






    Отзывы и комментарии о схеме читаем и пишем здесь: ---> Отзывы и комментарии о схеме

    Новые благодарочки в телеграм довольных пользователей:
    скриншот   скриншот   скриншот   скриншот   скриншот
      Дорогой пользователь! Огромная просьба, поблагодарите релизера, оцените раздачу и оставьте свои комментарий, если Вы скачали Перевал Тени через торрент бесплатно! Внесите свою лепту в развитие PiratBit!
      Комментировать посты могут только пользователи прошедшие не сложную регистрацию
      Показать сообщения:    

      Перевал Тени через торрент
      Скачать бесплатно Перевал Тени
      Перевал Тени скачать торрент
      Перевал Тени смотреть онлайн
      Cкачать фильм Перевал Тени бесплатно
      Перевал Тени скачать торрент в хорошем качестве
      Перевал Тени смотреть онлайн бесплатно в хорошем качестве


      Вы не можете начинать темы
      Вы не можете отвечать на сообщения
      Вы не можете редактировать свои сообщения
      Вы не можете удалять свои сообщения
      Вы не можете голосовать в опросах
      Вы не можете прикреплять файлы к сообщениям
      Вы можете скачивать файлы