1 сезон

3 сезон

iTunes

1

Line

MVO

iTunes

13

1 сезон

RePack

30

Deluxe

pack

Лицензия

ВАЖНО

ИГРА 18+

pack

RePack

MK11

RePack

jed

RePack

fifa19

RePack

RDR2

RePack

NEED FOR SPEED™ PAYBACK

4 сезон

9 сезон

Бесстыжие 9 сезон

Все сериалы

все сериалы на PB.wtf

RePack

FAR CRY 5

Anonymous, доброе утро, мы катастрофически не успеваем собрать деньги на оплату серверов, помогите нам пожалуйста 5,10,15р., для нас важна любая помощь . В качестве благодарности мы отключим Вам всю рекламу на сайте (укажите свой ник в строку Ваше имя)!

×
  
Magnet ссылка

Последний звонок / Last Call (Грег Гарт / Greg Garthe) [2012, комедия, DVD5] R5 pb.wtf

Последний звонок через торрент pb.wtf

Размер: 3.8 GB | Добавлен: 7 лет 9 мес. назад | Торрент скачан:91 раз
Скачать  

13-10-2013 18:08 Последний звонок Скачать торрент  


Последний звонок / Last Call
«А ты готов к отвязной вечеринке?»
Страна: США
Студия: Mineola Films
Жанр: комедия
Год выпуска: 2012
Мировая премьера: 12 апреля 2012
Российская премьера: 11 апреля 2013
Украинская премьера: 11 апреля 2013
Дата выхода DVD: 11 октября 2013
Продолжительность: 01:22:39
Перевод: Профессиональный (дублированный) [Лицензия]
Cубтитры: нет
Оригинальная аудиодорожка: нет
Режиссер: Грег Гарт / Greg Garthe
В ролях: Трэвис Ван Винкл, Райан Хансен, Кристофер Ллойд, Диора Бэрд, Клинт Ховард, Джон Кэподис, Ричард Рили, Дэвид ДеЛуис, Скотт Доннелли, Тара Рейд, Эдвард Финлэй, Джонатан Майкл Траутмэнн, Каттер Митчел, Джон ДиРеста, Том Арнольд, Дэйв Фоли, Джастин Либерман, Фил Хендри, Зак Беннетт, Шелли Беннетт, Рейнбоу Борден
Описание: Два лентяя и неудачника Дэнни и Фил, по стечению обстоятельств, вынуждены какое-то время управлять пабом их дяди Пита, который временно находится в тюрьме за дебош. Ребята придумывают разные, с их точки зрения, «креативные» способы извлечь прибыль — от превращения ирландского паба в стриптиз-бар, к ужасу их подружек, до нелегального клуба по продаже крепкого алкоголя подросткам, к явному неудовольствию полиции.
Бонусы: нет

Качество: DVD5 R5
Формат: DVD-Video
Видео кодек: MPEG2
Аудио кодек: AC3
Видео: PAL 16:9 (720x576(0.529)) MPEG Video, 25,000 кадр/сек, 5489 Кбит/сек
Аудио #1: Russian (Dolby AC3, 6 ch) 448 Кбит/сек, 48,0 КГц
Аудио #2: Russian (Dolby AC3, 2 ch) 192 Кбит/сек, 48,0 КГц



Title: Poslednij.zvonok.2012.DVD5
Size: 3.80 Gb ( 3 986 206,00 KBytes ) - DVD-5
Enabled regions: 1, 2, 3, 4, 5, 6, 7, 8

VTS_01 :
Play Length: 00:00:02
Video: PAL 16:9 (720x576) VBR, Auto Letterboxed
Audio:
Russian (Dolby AC3, 2 ch)
Russian (Dolby AC3, 2 ch)
Subtitles:
Russian
Russian
Not specified

VTS_02 :
Play Length: 00:00:04
Video: PAL 16:9 (720x576) VBR, Auto Letterboxed
Audio:
Russian (Dolby AC3, 2 ch)
Russian (Dolby AC3, 2 ch)

VTS_03 :
Play Length: 01:22:39
Video: PAL 16:9 (720x576) VBR, Auto Letterboxed
Audio:
Russian, AC3, 2/0 (L,R) ch, 192 kbps, Delay 0 mSec
Russian, AC3, 3/2 (L,C,R,SL,SR)+LFE ch, 448 kbps, Delay 0 mSec

* Menus Information *

VIDEO_TS Menu
Video:
PAL 16:9 (720x576) VBR
Auto Pan&Scan, Auto Letterboxed
English Language Unit :
Title Menu

VTS_01 Menu
Video:
PAL 16:9 (720x576) VBR
Auto Letterboxed
Audio:
Not specified (Dolby AC3, 2 ch)
English Language Unit :
Root Menu

VTS_02 Menu
Video:
PAL 4:3 (720x576) VBR
English Language Unit :
Root Menu

VTS_03 Menu
Video:
PAL 4:3 (720x576) VBR
English Language Unit :
Root Menu
Audio Menu
Chapter (PTT) Menu
Общее
Полное имя : F:Новинки 2013Poslednij.zvonok.2012.DVD5VIDEO_TSVTS_03_1.VOB
Формат : MPEG-PS
Размер файла : 1024 Мбайт
Продолжительность : 22 м.
Режим общего битрейта : Переменный
Общий поток : 6254 Кбит/сек

Видео
Идентификатор : 224 (0xE0)
Формат : MPEG Video
Версия формата : Version 2
Профиль формата : Main@Main
Параметр BVOP формата : Да
Параметр матрицы формата : Выборочная
Параметр GOP формата : Variable
Продолжительность : 22 м.
Вид битрейта : Переменный
Битрейт : 5489 Кбит/сек
Максимальный битрейт : 9800 Кбит/сек
Ширина : 720 пикселей
Высота : 576 пикселей
Соотношение сторон : 16:9
Частота кадров : 25,000 кадров/сек
Стандарт вещания : PAL
Цветовое пространство : YUV
Субдискретизация насыщенности : 4:2:0
Битовая глубина : 8 бит
Тип развёртки : Чересстрочная
Порядок развёртки : Верхнее поле первое
Метод сжатия : С потерями
Бит/(Пиксели*Кадры) : 0.529
Временной код первого кадра : 01:00:00:00
Оригинал временного кода : Group of pictures header
Размер потока : 899 Мбайт (88%)

Аудио #1
Идентификатор : 189 (0xBD)-128 (0x80)
Формат : AC-3
Формат/Информация : Audio Coding 3
Расширение режима : CM (complete main)
Параметр Endianness формата : Big
Режим смешивания : DVD-Video
Продолжительность : 22 м.
Вид битрейта : Постоянный
Битрейт : 192 Кбит/сек
Каналы : 2 канала
Расположение каналов : Front: L R
Частота : 48,0 КГц
Битовая глубина : 16 бит
Метод сжатия : С потерями
Размер потока : 31,4 Мбайт (3%)

Аудио #2
Идентификатор : 189 (0xBD)-129 (0x81)
Формат : AC-3
Формат/Информация : Audio Coding 3
Расширение режима : CM (complete main)
Параметр Endianness формата : Big
Режим смешивания : DVD-Video
Продолжительность : 22 м.
Вид битрейта : Постоянный
Битрейт : 448 Кбит/сек
Каналы : 6 каналов
Расположение каналов : Front: L C R, Side: L R, LFE
Частота : 48,0 КГц
Битовая глубина : 16 бит
Метод сжатия : С потерями
Размер потока : 73,3 Мбайт (7%)










pb.wtf



Скачать Последний звонок через торрент http://i57.fastpic.ru/big/2013/1013/3a/92c9b6f0c2799719326338feaf5c0c3a.jpg Скачать фильм Последний звонок через торрент бесплантно в хорошем качестве Описание: Два лентяя и неудачника Дэнни и Фил, по стечению обстоятельств, вынуждены какое-то время управлять пабом их дяди Пита, который ... 9.7 10 14
Info! Золотая раздача, скачанное не засчитывается.
Торрент: Зарегистрирован [2013-10-13 18:08] · скачан: 91 раз
Статус: √ проверено
Размер: 3.8 GB
Как cкачать? Как скачать Последний звонок через торрент | UTorrent

28-11-2019 20:33  

Отключить всю рекламу на сайте

    Дорогой пользователь! Огромная просьба, поблагодарите релизера, оцените раздачу и оставьте свои комментарий, если Вы скачали Последний звонок через торрент бесплатно! Внесите свою лепту в развитие PiratBit!
    Комментировать посты могут только пользователи прошедшие не сложную регистрацию
    Показать сообщения:    

    Последний звонок через торрент
    Скачать бесплатно Последний звонок
    Последний звонок скачать торрент
    Последний звонок смотреть онлайн
    Cкачать фильм Последний звонок бесплатно
    Последний звонок скачать торрент в хорошем качестве
    Последний звонок смотреть онлайн бесплатно в хорошем качестве


    Вы не можете начинать темы
    Вы не можете отвечать на сообщения
    Вы не можете редактировать свои сообщения
    Вы не можете удалять свои сообщения
    Вы не можете голосовать в опросах
    Вы не можете прикреплять файлы к сообщениям
    Вы можете скачивать файлы