2 сезон

iTunes

MVO

1

2 сезон

iTunes

iTunes

1 сезон

RePack

30

Новинка

ВАЖНО

ИГРА 18+

pack

RePack

MK11
pack

Легкие деньги

RePack

jed

RePack

fifa19

RePack

RDR2

RePack

NEED FOR SPEED™ PAYBACK

4 сезон

9 сезон

Бесстыжие 9 сезон

Все сериалы

все сериалы на PB.wtf

RePack

FAR CRY 5

Anonymous, доброе утро, мы не успеваем собрать деньги на оплату серверов за декабрь и январь, помогите нам пожалуйста в это трудное время. В качестве благодарности мы отключим Вам всю рекламу на сайте (укажите свой ник в строку Ваше имя)!

×
  
Magnet ссылка

Свидетели должны замолчать / Breakout (Дэмиан Ли / Damian Lee) [2013, Канада, боевик, триллер, WEB-DLRip, MVO][Лицензия] pb.wtf

Свидетели должны замолчать через торрент pb.wtf

Размер: 1.37 GB | Добавлен: 7 лет 3 мес. назад | Торрент скачан:1359 раз
Скачать  

13-10-2013 19:10 Свидетели должны замолчать Скачать торрент  


Свидетели должны замолчать / Breakout


  • Год выпуска:2013
  • Страна:Канада
  • Жанр:боевик, триллер
  • Продолжительность: 01:29:04
  • Перевод:Профессиональный (многоголосый, закадровый)[Лицензия]

  • Субтитры: Нет
    • Режиссер:Дэмиан Ли / Damian Lee

  • В ролях:Брендан Фрейзер (Jack), Доминик Пёрселл (Tommy Baxter), Итан Сапли (Kenny Baxter), Холли Дево (Jen), Дэниэл Кэш (Chuck), Кристиан Мартин (Mikey), Эми Прайс-Фрэнсис (Maria), Энтони Юлк (Ryan Pain), Зион Ли (Clive), Аркадия Ли (Jenny @ 9), Наоми Эндрюс (Wendy), Лара Даанс (Zakia)
    • Описание:
      Невинная поездка на природу превращается для брата и сестры в опасное приключение, когда они становятся свидетелями убийства. Стремясь избавиться от ненужных глаз, преступники начинают безжалостную охоту на детей. Отец ребят Джек Дэмсон, отбывающий срок в тюрьме за акцию протеста, которая привела к трагическим последствиям, разрабатывает план побега, чтобы вырвать своих детей из цепких лап профессиональных преступников Томми и Кенни.

    • Качество:WEB-DLRip
    • Формат:AVI
    • Видео кодек: XviD
    • Аудио кодек:AC3
    • Видео: XviD, 720x400 (16:9), 1805 kbps, 23,976 fps, 0,261 bpp
    • Аудио: AC3 / 5.1 / 48 kHz / 384 kbps / 16 bit

    General
    Complete name : D:ТорентыBreakout.2013.P.WEBDLRip.1400Mb.avi
    Format : AVI
    Format/Info : Audio Video Interleave
    File size : 1.37 GiB
    Duration : 1h 29mn
    Overall bit rate : 2 198 Kbps
    Writing application : VirtualDubMod 1.5.10.3 | www.virtualdub-fr.org || (build 2550/release)
    Writing library : VirtualDubMod build 2550/release

    Video
    ID : 0
    Format : MPEG-4 Visual
    Format profile : Advanced Simple@L5
    Format settings, BVOP : 1
    Format settings, QPel : No
    Format settings, GMC : No warppoints
    Format settings, Matrix : Custom
    Codec ID : XVID
    Codec ID/Hint : XviD
    Duration : 1h 29mn
    Bit rate : 1 805 Kbps
    Width : 720 pixels
    Height : 400 pixels
    Display aspect ratio : 16:9
    Frame rate : 23.976 fps
    Color space : YUV
    Chroma subsampling : 4:2:0
    Bit depth : 8 bits
    Scan type : Progressive
    Compression mode : Lossy
    Bits/(Pixel*Frame) : 0.261
    Stream size : 1.12 GiB (82%)
    Writing library : XviD 1.2.1 (UTC 2008-12-04)

    Audio
    ID : 1
    Format : AC-3
    Format/Info : Audio Coding 3
    Mode extension : CM (complete main)
    Codec ID : 2000
    Duration : 1h 29mn
    Bit rate mode : Constant
    Bit rate : 384 Kbps
    Channel(s) : 6 channels
    Channel positions : Front: L C R, Side: L R, LFE
    Sampling rate : 48.0 KHz
    Bit depth : 16 bits
    Compression mode : Lossy
    Stream size : 245 MiB (17%)
    Alignment : Split accross interleaves
    Interleave, duration : 42 ms (1.00 video frame)
    Interleave, preload duration : 500 ms


    © Оформление by Vetal
    pb.wtf



  • Скачать Свидетели должны замолчать через торрент http://i58.fastpic.ru/big/2013/0922/31/4683bcd4960801b02604b79f43d30631.png Скачать фильм Свидетели должны замолчать через торрент бесплантно в хорошем качестве Описание:Невинная поездка на природу превращается для брата и сестры в опасное , когда они становятся свидетелями убийства. ... 8.8 10 33
    Info! Золотая раздача, скачанное не засчитывается.
    Торрент: Зарегистрирован [2013-10-13 19:10] · скачан: 1 359 раз
    Статус: √ проверено
    Размер: 1.37 GB
    Как cкачать? Как скачать Свидетели должны замолчать через торрент | UTorrent

    28-11-2019 20:33  

    Отключить всю рекламу на сайте

    14-10-2013 07:51 Свидетели должны замолчать Скачать торрент  

    Больше 15-ти минут не осилил. Огромное Фрейзера на весь экран это трэш pb.wtf



    14-10-2013 08:11 Свидетели должны замолчать Скачать торрент  

    Фильм - полная охинея!!!pb.wtf



    15-10-2013 09:04 Свидетели должны замолчать Скачать торрент  

    lotos-leo писал(а):

    Фильм - полная охинея!!!

    Полностью согласен! Редкостный бред! pb.wtf



    16-10-2013 21:06 Свидетели должны замолчать Скачать торрент  

    голимая, не рекомендуюpb.wtf



    18-10-2013 19:07 Свидетели должны замолчать Скачать торрент  

    АААААААААААААААААААААААА !!!Думал глянуть но (((pb.wtf



    28-10-2013 07:17 Свидетели должны замолчать Скачать торрент  

    Фильм полный отстой.pb.wtf



    06-11-2013 16:01 Свидетели должны замолчать Скачать торрент  

    фильм херня полная((((!!!!pb.wtf



      Дорогой пользователь! Огромная просьба, поблагодарите релизера, оцените раздачу и оставьте свои комментарий, если Вы скачали Свидетели должны замолчать через торрент бесплатно! Внесите свою лепту в развитие PiratBit!
      Комментировать посты могут только пользователи прошедшие не сложную регистрацию
      Показать сообщения:    

      Свидетели должны замолчать через торрент
      Скачать бесплатно Свидетели должны замолчать
      Свидетели должны замолчать скачать торрент
      Свидетели должны замолчать смотреть онлайн
      Cкачать фильм Свидетели должны замолчать бесплатно
      Свидетели должны замолчать скачать торрент в хорошем качестве
      Свидетели должны замолчать смотреть онлайн бесплатно в хорошем качестве


      Вы не можете начинать темы
      Вы не можете отвечать на сообщения
      Вы не можете редактировать свои сообщения
      Вы не можете удалять свои сообщения
      Вы не можете голосовать в опросах
      Вы не можете прикреплять файлы к сообщениям
      Вы можете скачивать файлы