2 сезон

iTunes

1 сезон

1

iTunes

iTunes

iTunes

1 сезон

RePack

30

ИГРА 18+

pack

ВАЖНО

!!Акция!!

Alien_RageХит недели

RePack

MK11
pack

Забери бонус

RePack

jed

!!Акция!!

Alien_Rage

RePack

fifa19

RePack

Assassins Creed: Odyssey

RePack

NEED FOR SPEED™ PAYBACK

4 сезон

9 сезон

Бесстыжие 9 сезон

Все сериалы

все сериалы на PB.wtf

RePack

FAR CRY 5
  

Дети Водолея / Сезон: 1 / Серии: 1-4 из 4(Эдуард Реджепов) [2013 г., мелодрама, SATRip] pb.wtf

Дети Водолея через торрент pb.wtf

Размер: 2.59 GB | Добавлен: 7 лет назад | Торрент скачан:255 раз
Скачать  

13-10-2013 21:43 Дети Водолея Скачать торрент  

Дети Водолея Год выпуска: 2013
Страна: Россия
Жанр: мелодрама,
Продолжительность: 00:48:00
Режиссёр: Эдуард Реджепов
В ролях: Андрей Мерзликин, Ярослав Жалнин, Марина Коняшкина, Ирина Чериченко, Анастасия Бакланова (,

Описание: Нелёгкая борьба за любимую женщину обернётся для главного героя ещё и сражением за право называться отцом. Сможет ли он выстоять в нелёгком противостоянии с судьбой и победить?

Качество: SATRip
Формат: AVI
Видео кодек: XviD
Аудио кодек: MP3
Видео: MPEG4, XviD, 720x400 (16:9), 25.000 fps, 1 676 Kbps (0.233 bit/pixel)
Аудио: MP3 , 48.0 KHz, 2 ch, 192 Kbps, CBR
скриншот   скриншот   скриншот   скриншот   скриншот   скриншот  

Формат : AVI
Формат/Информация : Audio Video Interleave
Размер файла : 575 Мбайт
Продолжительность : 44 м.
Общий поток : 1799 Кбит/сек
Программа кодирования : VirtualDubModRus 1.5.10.2 (build 2542/release)
Библиотека кодирования : VirtualDubMod build 2542/release
Видео
Идентификатор : 0
Формат : MPEG-4 Visual
Профиль формата : Advanced Simple@L5
Параметр BVOP формата : 1
Параметр QPel формата : Нет
Параметр GMC формата : Без точки перехода
Параметр матрицы формата : Default (H.263)
Идентификатор кодека : XVID
Идентификатор кодека/Подсказка : XviD
Продолжительность : 44 м.
Битрейт : 1598 Кбит/сек
Ширина : 720 пикселей
Высота : 400 пикселей
Соотношение сторон : 16:9
Частота кадров : 25,000 кадров/сек
Цветовое пространство : YUV
Субдискретизация насыщенности : 4:2:0
Битовая глубина : 8 бит
Тип развёртки : Прогрессивная
Метод сжатия : С потерями
Бит/(Пиксели*Кадры) : 0.222
Размер потока : 510 Мбайт (89%)
Библиотека кодирования : XviD 1.2.1 (UTC 2008-12-04)
Аудио
Идентификатор : 1
Формат : MPEG Audio
Версия формата : Version 1
Профиль формата : Layer 3
Режим : Joint stereo
Расширение режима : MS Stereo
Идентификатор кодека : 55
Идентификатор кодека/Подсказка : MP3
Продолжительность : 44 м.
Вид битрейта : Постоянный
Битрейт : 192 Кбит/сек
Каналы : 2 канала
Частота : 48,0 КГц
Метод сжатия : С потерями
Размер потока : 61,3 Мбайт (11%)
Выравнивание : Соединение по промежуткам
Продолжительность промежутка : 40 мс. (1,00 видеокадр)
Время предзагрузки промежутка : 504 мс.
Библиотека кодирования : LAME3.99r
Настройки программы : -m j -V 4 -q 2 -lowpass 18.6 -b 192

pb.wtf



Скачать Дети Водолея через торрент http://pic.kartinco.top/images/4/zz469.jpg Скачать фильм Дети Водолея через торрент бесплантно в хорошем качестве Описание: Нелёгкая борьба за любимую женщину обернётся для главного героя ещё и сражением за право называться отцом. Сможет ли он выстоять ... 9.8 10 12
Info! Золотая раздача, скачанное не засчитывается.
Торрент: Зарегистрирован [2013-10-13 21:43] · скачан: 255 раз
Статус: √ проверено
Размер: 2.59 GB
Как cкачать? Как скачать Дети Водолея через торрент | qTorrent

28-11-2019 20:33  

Отключить всю рекламу на сайте

    Дорогой пользователь! Огромная просьба, поблагодарите релизера, оцените раздачу и оставьте свои комментарий, если Вы скачали Дети Водолея через торрент бесплатно! Внесите свою лепту в развитие PiratBit!
    Комментировать посты могут только пользователи прошедшие не сложную регистрацию
    Показать сообщения:    

    Дети Водолея через торрент
    Скачать бесплатно Дети Водолея
    Дети Водолея скачать торрент
    Дети Водолея смотреть онлайн
    Cкачать фильм Дети Водолея бесплатно
    Дети Водолея скачать торрент в хорошем качестве
    Дети Водолея смотреть онлайн бесплатно в хорошем качестве


    Вы не можете начинать темы
    Вы не можете отвечать на сообщения
    Вы не можете редактировать свои сообщения
    Вы не можете удалять свои сообщения
    Вы не можете голосовать в опросах
    Вы не можете прикреплять файлы к сообщениям
    Вы можете скачивать файлы