Ссылка на приватное зеркало нашего сайта всего за 1$. Внимание количество ограничено!!!

2 сезон

iTunes

1 сезон

1

iTunes

iTunes

iTunes

1 сезон

RePack

30

ИГРА 18+

pack

ВАЖНО

!!Акция!!

Alien_RageХит недели

RePack

MK11
pack

Забери бонус

RePack

jed

!!Акция!!

Alien_Rage

RePack

fifa19

RePack

Assassins Creed: Odyssey

RePack

NEED FOR SPEED™ PAYBACK

4 сезон

9 сезон

Бесстыжие 9 сезон

Все сериалы

все сериалы на PB.wtf

RePack

FAR CRY 5
  

Зажигaниe / Combustiоn (Даниэль Кaльпаpcоро) [2013 г., Мелодрама, Приключения, Боевик, BDRip 720p, Дублированный (Профессиональный)] pb.wtf

Зажигaниe через торрент pb.wtf

Размер: 4.26 GB | Добавлен: 7 лет назад | Торрент скачан:103 раза
Скачать  

14-10-2013 03:20 Зажигaниe Скачать торрент  


Зажигaниe / Combustiоn
Информация:
Год выпуска: 2013
Страна: Испания
Жанр: Мелодрама, Приключения, Боевик
Продолжительность: 01:43:37
Перевод: Дублированный (Профессиональный)
Режиссер: Даниэль Кaльпаpcоро
В ролях: Алекс Гонсалес, Адриана Угарте, Альберто Амман, Мария Кастро, Луис Саера, Марта Ниэто, Кристиан Мулас, Хуан Пабло Шук, Мария Каласса...
Описание:
Навас и Ари - идеальная пара и профессиональные мошенники. Она - роковая красотка, соблазняющая богатых мужчин, а он - жестокий налетчик, который их грабит. Все меняется, когда Навас и Ари выбирают себе новую жертву - богатенького красавчика Микеля, в которого Ари влюбляется без памяти...…
Тех.Данные:
Качество: BDRip 720p | Blu-Ray | Автор рипа: XLASER
Формат: MKV
Видео кодек: AVC
Аудио кодек: AC3
Видео: AVC at 5318 Кбит/сек 1280 x 720 (1.778) at 24.000 fps
Аудио: AC-3 at 448 Кбит/сек 6 каналов, 48,0 КГц

Код:

Формат                                   : Matroska
Версия формата                           : Version 2
Размер файла                             : 4,26 Гбайт
Продолжительность                        : 1 ч. 43 м.
Общий поток                              : 5883 Кбит/сек
Программа кодирования                    : XviD4PSP 6.0 / 54.29.105
Библиотека кодирования                   : XviD4PSP 6.0 / 54.29.105

Видео
Идентификатор                            : 1
Формат                                   : AVC
Формат/Информация                        : Advanced Video Codec
Профиль формата                          : High@L4.1
Параметр CABAC формата                   : Да
Параметр ReFrames формата                : 3 кадра
Идентификатор кодека                     : V_MPEG4/ISO/AVC
Продолжительность                        : 1 ч. 43 м.
Битрейт                                  : 5318 Кбит/сек
Номинальный битрейт                      : 5600 Кбит/сек
Ширина                                   : 1280 пикселей
Высота                                   : 720 пикселей
Соотношение сторон                       : 16:9
Режим частоты кадров                     : Постоянный
Частота кадров                           : 24,000 кадра/сек
Цветовое пространство                    : YUV
Субдискретизация насыщенности            : 4:2:0
Битовая глубина                          : 8 бит
Тип развёртки                            : Прогрессивная
Бит/(Пиксели*Кадры)                      : 0.240
Размер потока                            : 3,85 Гбайт (90%)
Библиотека кодирования                   : x264 core 128 r2216M 198a7ea
Настройки программы                      : cabac=1 / ref=3 / deblock=1:0:0 / analyse=0x3:0x133 / me=dia / subme=5 / psy=1 / psy_rd=1.00:0.20 / mixed_ref=1 / me_range=16 / chroma_me=1 / trellis=0 / 8x8dct=1 / cqm=0 / deadzone=21,11 / fast_pskip=1 / chroma_qp_offset=0 / threads=3 / lookahead_threads=1 / sliced_threads=0 / nr=0 / decimate=1 / interlaced=0 / bluray_compat=0 / constrained_intra=0 / bframes=3 / b_pyramid=1 / b_adapt=0 / b_bias=0 / direct=3 / weightb=1 / open_gop=0 / weightp=0 / keyint=240 / keyint_min=24 / scenecut=40 / intra_refresh=0 / rc_lookahead=40 / rc=abr / mbtree=1 / bitrate=5600 / ratetol=1.0 / qcomp=0.60 / qpmin=10 / qpmax=51 / qpstep=4 / ip_ratio=1.40 / aq=1:1.00
Default                                  : Да
Forced                                   : Нет

Аудио
Идентификатор                            : 2
Формат                                   : AC-3
Формат/Информация                        : Audio Coding 3
Расширение режима                        : CM (complete main)
Параметр Endianness формата              : Big
Идентификатор кодека                     : A_AC3
Продолжительность                        : 1 ч. 43 м.
Вид битрейта                             : Постоянный
Битрейт                                  : 448 Кбит/сек
Каналы                                   : 6 каналов
Расположение каналов                     : Front: L C R, Side: L R, LFE
Частота                                  : 48,0 КГц
Битовая глубина                          : 16 бит
Метод сжатия                             : С потерями
Задержка видео                           : 59 мс.
Размер потока                            : 332 Мбайт (8%)
Язык                                     : Russian
Default                                  : Да
Forced                                   : Нет


скриншот   скриншот   скриншот   скриншот   скриншот  
pb.wtf



Скачать Зажигaниe через торрент http://i6.imageban.ru/out/2013/10/14/9191ba040ff37a233c0ceab9a39c266c.png Скачать фильм Зажигaниe через торрент бесплантно в хорошем качестве Описание: Навас и Ари - идеальная пара и профессиональные мошенники. Она - роковая красотка, соблазняющая богатых мужчин, а он - жестокий ... 8.7 10 7
Info! Золотая раздача, скачанное не засчитывается.
Торрент: Зарегистрирован [2013-10-14 03:20] · скачан: 103 раз
Статус: √ проверено
Размер: 4.26 GB
Как cкачать? Как скачать Зажигaниe через торрент | qTorrent

% Раздел Тема Автор DL S | L
Фильмы [HD 720p, 1080p] (Хороший звук DUB, MVO) [ 7.74 GB ] Зажигaниe / Combustiоn [2013 Мело BDRip 1080p ()] XLASER Скачать
1 | 0
Фильмы 2013 [DVDrip, WEB-DLRip, HDrip] [ 1.95 GB ] Зажигaниe / Combustiоn [2013 Мело HDRip-AVC ()] XLASER Скачать
1 | 0

28-11-2019 20:33  

Отключить всю рекламу на сайте

14-10-2013 07:50 Зажигaниe Скачать торрент  

спасибо посмотримpb.wtf



14-10-2013 10:27 Зажигaниe Скачать торрент  

жена смотрела,я пожалел что присоединился. фильм ни о чем. Бред какой то.pb.wtf



    Дорогой пользователь! Огромная просьба, поблагодарите релизера, оцените раздачу и оставьте свои комментарий, если Вы скачали Зажигaниe через торрент бесплатно! Внесите свою лепту в развитие PiratBit!
    Комментировать посты могут только пользователи прошедшие не сложную регистрацию
    Показать сообщения:    

    Зажигaниe через торрент
    Скачать бесплатно Зажигaниe
    Зажигaниe скачать торрент
    Зажигaниe смотреть онлайн
    Cкачать фильм Зажигaниe бесплатно
    Зажигaниe скачать торрент в хорошем качестве
    Зажигaниe смотреть онлайн бесплатно в хорошем качестве


    Вы не можете начинать темы
    Вы не можете отвечать на сообщения
    Вы не можете редактировать свои сообщения
    Вы не можете удалять свои сообщения
    Вы не можете голосовать в опросах
    Вы не можете прикреплять файлы к сообщениям
    Вы можете скачивать файлы