Ссылка на приватное зеркало нашего сайта всего за 1$. Внимание количество ограничено!!!

2 сезон

iTunes

1 сезон

1

2 сезон

2 сезон

iTunes

1 сезон

RePack

30

Новинка

ВАЖНО

ИГРА 18+

pack

RePack

MK11
pack

Забери бонус

RePack

jed

!!Акция!!

Alien_Rage

RePack

fifa19

RePack

Assassins Creed: Odyssey

RePack

NEED FOR SPEED™ PAYBACK

4 сезон

9 сезон

Бесстыжие 9 сезон

Все сериалы

все сериалы на PB.wtf

RePack

FAR CRY 5
  

Легавый / Коп / Copper / Сезон: 2 / Серии: 1-13 из 13 (Лариса Кондрацки / Larysa Kondracki, Клемент Вирго / Clément Virgo, Кен Джиротти / Ken Girotti) [2013 , США , боевик, драма , HDTVRip] DVO SLIVAS pb.wtf

Легавый через торрент pb.wtf

Размер: 5.49 GB | Добавлен: 7 лет 1 мес. назад | Торрент скачан:77 раз
Скачать  

14-10-2013 14:00 Легавый Скачать торрент  

Легавый (Коп) / Copper

Слоган: «In 1864, he was New York's finest»
Год выпуска: 2013
Страна: США
Производство: BBC America, Beta Film, ТВА
Жанр: боевик, драма
Продолжительность: 00:43:40
Перевод: Любительский (двухголосый) |SLIVAS|

Озвучка: Юлия Реутова и Андрей Жариков

Режиссер: Лариса Кондрацки / Larysa Kondracki, Клемент Вирго / Clément Virgo, Кен Джиротти / Ken Girotti
В ролях: Том Уэстон-Джонс (Detective Kevin Corcoran), Кевин Дж. Райан (Detective Francis Maguire), Кайл Шмид (Robert Morehouse), Анастасия Гриффит (Elizabeth Haverford), Дилан Тейлор (Andrew O'Brien), Ато Эссонда (Doctor Matthew Freeman), Тесса Томпсон (Sara Freeman), Франка Потенте (Eva Heissen), Рон Уайт (Captain Ciaran Joseph Sullivan), Кьяра Гласко (Annie Reilly), Джорди Джонсон (Norbert Morehouse), Адриан Гриффин (Morehouse's Butler)

Описание: Место действия сериала - Нью-Йорк 1860-х годов. Кевин Коркоран - сильный и грубый ирландский полицейский, работающий в пользующемся дурной славой районе «Пять Углов». В беспокойном мире Коркоран старается быть верным своим моральным принципам на пути к правде об исчезновении его жены и смерти дочери.
Его дружба с двумя соотечественниками - своенравным сыном богатого промышленника и афро-американским врачом, которые тайно помогают Коркорану с его работой - сталкивает его с контрастирующими мирами Пятой авеню и развивающегося афро-американского общества в сельском северном Манхэттене. Всех троих объединяет опыт сражений в Гражданской войне и это связывает их жизни навсегда.

Рейтинг
kinopoisk.ru: 6.983 (235)
imdb.com: 7.30 (6042)
Мировая премьера: 19 августа 2012

  • Качество: HDTVRip
  • Формат: AVI
  • Видео кодек: XviD
  • Аудио кодек: MP3
  • Видео: XviD/ 640x360 (16:9), 1198 kbps, 23,976 fps, 0,217 bpp
  • Аудио: MP3 / 2.0 / 48 kHz / 160 kbps /
    Format : AVI
    Format/Info : Audio Video Interleave
    File size : 428 MiB
    Duration : 43mn 40s
    Overall bit rate : 1 371 Kbps
    Writing application : Lavf51.12.1

    Video
    ID : 0
    Format : xvid
    Codec ID : xvid
    Duration : 43mn 39s
    Bit rate : 1 198 Kbps
    Width : 640 pixels
    Height : 360 pixels
    Display aspect ratio : 16:9
    Frame rate : 23.976 fps
    Bits/(Pixel*Frame) : 0.217
    Stream size : 374 MiB (87%)

    Audio
    ID : 1
    Format : MPEG Audio
    Format version : Version 1
    Format profile : Layer 3
    Mode : Joint stereo
    Mode extension : MS Stereo
    Codec ID : 55
    Codec ID/Hint : MP3
    Duration : 43mn 40s
    Bit rate mode : Constant
    Bit rate : 160 Kbps
    Channel(s) : 2 channels
    Sampling rate : 48.0 KHz
    Compression mode : Lossy
    Stream size : 50.0 MiB (12%)
    Alignment : Aligned on interleaves
    Interleave, duration : 24 ms (0.58 video frame)
    pb.wtf



  • Скачать Легавый через торрент http://i5.imageban.ru/out/2013/10/14/12ae80e28c62db237555189e8f5d5841.png Скачать фильм Легавый через торрент бесплантно в хорошем качестве Описание: Место действия сериала - Нью-Йорк 1860-х годов. Кевин Коркоран - сильный и грубый ирландский полицейский, работающий в ... 10 10 7
    Info! Золотая раздача, скачанное не засчитывается.
    Торрент: Зарегистрирован [2013-10-14 14:01] · скачан: 77 раз
    Статус: √ проверено
    Размер: 5.49 GB
    Как cкачать? Как скачать Легавый через торрент | qTorrent

    28-11-2019 20:33  

    Отключить всю рекламу на сайте

      Дорогой пользователь! Огромная просьба, поблагодарите релизера, оцените раздачу и оставьте свои комментарий, если Вы скачали Легавый через торрент бесплатно! Внесите свою лепту в развитие PiratBit!
      Комментировать посты могут только пользователи прошедшие не сложную регистрацию
      Показать сообщения:    

      Легавый через торрент
      Скачать бесплатно Легавый
      Легавый скачать торрент
      Легавый смотреть онлайн
      Cкачать фильм Легавый бесплатно
      Легавый скачать торрент в хорошем качестве
      Легавый смотреть онлайн бесплатно в хорошем качестве


      Вы не можете начинать темы
      Вы не можете отвечать на сообщения
      Вы не можете редактировать свои сообщения
      Вы не можете удалять свои сообщения
      Вы не можете голосовать в опросах
      Вы не можете прикреплять файлы к сообщениям
      Вы можете скачивать файлы