Ссылка на приватное зеркало нашего сайта всего за 1$. Внимание количество ограничено!!!

2 сезон

iTunes

1 сезон

1

iTunes

iTunes

iTunes

1 сезон

RePack

30

ИГРА 18+

pack

ВАЖНО

!!Акция!!

Alien_RageХит недели

RePack

MK11
pack

Забери бонус

RePack

jed

!!Акция!!

Alien_Rage

RePack

fifa19

RePack

Assassins Creed: Odyssey

RePack

NEED FOR SPEED™ PAYBACK

4 сезон

9 сезон

Бесстыжие 9 сезон

Все сериалы

все сериалы на PB.wtf

RePack

FAR CRY 5
  

Близнецы-убийцы / Seconds Apart (Антонио Негрет) [2010, ужасы, триллер , BDRip,MVO] pb.wtf

Близнецы-убийцы через торрент pb.wtf

Размер: 1.45 GB | Добавлен: 7 лет назад | Торрент скачан:129 раз
Скачать  

17-10-2013 03:46 Близнецы-убийцы Скачать торрент  

Близнецы-убийцы / Seconds Apart«Смерть пришла не одна»

Год выпуска: 2010
Страна: США
Жанр: ужасы, триллер
Продолжительность: 01:29:06
Перевод: Профессиональный (многоголосый закадровый)(R5)

Режиссер: Антонио Негрет
Сценарий: Джордж Ричардс
Продюсер: Кортни Соломон, Франклин А. Валлетте, Стефани Калеб, ...

В ролях: Орландо Джонс / Orlando Jones (Detective Lampkin), Эдмунд Энтин / Edmund Entin (Jonah), Гари Энтин / Gary Entin (Seth), Саманта Дроук / Samantha Droke (Eve), Моргана Шоу / Morgana Shaw (Rita Trimble), Луис Хертэм / Louis Herthum (Owen Trimble), Марк Маколей / Marc Macaulay (Father Zinselmeyer), Джеймс ДюМонт / James DuMont (Hardesty)


Описание: Мальчики из хорошего общества… Кто скажет, что они — безжалостные убийцы? Их дар — телепатия и этот дар стал их проклятием. Невероятные способности помутненного разума становятся орудием таких отвратительных преступлений, на которые способно лишь самое извращенное сознание. Сыщики ищут след загадочных маньяков. А в это время зло порождает жестокий конфликт между самими братьями-монстрами…



Качество: BDRip
Формат: AVI
Видео кодек: XviD
Аудио кодеk: AC3
Видео: 720x400 (16:9), 23.976 fps, XviD, 1 490 Kbps
Аудио: Аудио #1: AC3, 384 Kbps, 48.0 KHz, 6 ch Русский
Аудио #2: AC3, 448 Kbps, 48.0 KHz, 6 ch английский

Код:

General
Complete name                    : Bliznecy-ubiycy.2010..avi
Format                           : AVI
Format/Info                      : Audio Video Interleave
File size                        : 1.45 GiB
Duration                         : 1h 29mn
Overall bit rate                 : 2 334 Kbps
Writing application              : VirtualDubModRus 1.5.10.2 (build 2542/release)
Writing library                  : VirtualDubMod build 2542/release

Video
ID                               : 0
Format                           : MPEG-4 Visual
Format profile                   : Advanced Simple@L5
Format settings, BVOP            : Yes
Format settings, QPel            : No
Format settings, GMC             : No warppoints
Format settings, Matrix          : Default (MPEG)
Codec ID                         : XVID
Codec ID/Hint                    : XviD
Duration                         : 1h 29mn
Bit rate                         : 1 490 Kbps
Width                            : 720 pixels
Height                           : 400 pixels
Display aspect ratio             : 16:9
Frame rate                       : 23.976 fps
Color space                      : YUV
Chroma subsampling               : 4:2:0
Bit depth                        : 8 bits
Scan type                        : Progressive
Bits/(Pixel*Frame)               : 0.216
Stream size                      : 949 MiB (64%)
Writing library                  : XviD 1.2.1 (UTC 2008-12-04)

Audio #1
ID                               : 1
Format                           : AC-3
Format/Info                      : Audio Coding 3
Mode extension                   : CM (complete main)
Codec ID                         : 2000
Duration                         : 1h 28mn
Bit rate mode                    : Constant
Bit rate                         : 384 Kbps
Channel(s)                       : 6 channels
Channel positions                : Front: L C R, Side: L R, LFE
Sampling rate                    : 48.0 KHz
Bit depth                        : 16 bits
Stream size                      : 244 MiB (16%)
Alignment                        : Split accross interleaves
Interleave, duration             : 42 ms (1.00 video frame)
Interleave, preload duration     : 500 ms

Audio #2
ID                               : 2
Format                           : AC-3
Format/Info                      : Audio Coding 3
Mode extension                   : CM (complete main)
Codec ID                         : 2000
Duration                         : 1h 29mn
Bit rate mode                    : Constant
Bit rate                         : 448 Kbps
Channel(s)                       : 6 channels
Channel positions                : Front: L C R, Side: L R, LFE
Sampling rate                    : 48.0 KHz
Bit depth                        : 16 bits
Stream size                      : 286 MiB (19%)
Alignment                        : Split accross interleaves
Interleave, duration             : 42 ms (1.00 video frame)
Interleave, preload duration     : 500 ms

pb.wtf



Скачать Близнецы-убийцы через торрент http://i58.fastpic.ru/big/2013/1016/4f/eacd80c2920ef7ee408544c38271084f.jpg Скачать фильм Близнецы-убийцы через торрент бесплантно в хорошем качестве Описание: Мальчики из хорошего общества… Кто скажет, что они — безжалостные убийцы? Их дар — телепатия и этот дар стал их проклятием. ... 9.8 10 4
Info! Золотая раздача, скачанное не засчитывается.
Торрент: Зарегистрирован [2013-10-17 03:46] · скачан: 129 раз
Статус: √ проверено
Размер: 1.45 GB
Как cкачать? Как скачать Близнецы-убийцы через торрент | qTorrent

% Раздел Тема Автор DL S | L
Фильмы [HD 720p, 1080p] (Хороший звук DUB, MVO) [ 4.6 GB ] Близнецы-убийцы / Seconds Apart [2010 BDRip ] markfiter Скачать
1 | 0
Фильмы 2010 [ 1.36 GB ] Близнецы-убийцы / Seconds Apart [2010 HDRip лицензия] НеЗнАйКа Скачать
1 | 0
Фильмы 2010 [ 700 MB ] Близнецы-убийцы / Seconds Apart [2010 HDRip лицензия] Sудья Скачать
1 | 0
Фильмы (DVD фильмы) [ 3.9 GB ] Близнецы-убийцы / Seconds Apart [2010 DVD5] R5 voovaz Скачать
1 | 0

28-11-2019 20:33  

Отключить всю рекламу на сайте

    Дорогой пользователь! Огромная просьба, поблагодарите релизера, оцените раздачу и оставьте свои комментарий, если Вы скачали Близнецы-убийцы через торрент бесплатно! Внесите свою лепту в развитие PiratBit!
    Комментировать посты могут только пользователи прошедшие не сложную регистрацию
    Показать сообщения:    

    Близнецы-убийцы через торрент
    Скачать бесплатно Близнецы-убийцы
    Близнецы-убийцы скачать торрент
    Близнецы-убийцы смотреть онлайн
    Cкачать фильм Близнецы-убийцы бесплатно
    Близнецы-убийцы скачать торрент в хорошем качестве
    Близнецы-убийцы смотреть онлайн бесплатно в хорошем качестве


    Вы не можете начинать темы
    Вы не можете отвечать на сообщения
    Вы не можете редактировать свои сообщения
    Вы не можете удалять свои сообщения
    Вы не можете голосовать в опросах
    Вы не можете прикреплять файлы к сообщениям
    Вы можете скачивать файлы