1 сезон

1 сезон

iTunes

1

КиноПоиск HD

Кинопоиск HD

iTunes

13

1 сезон

RePack

30

Новинка

ВАЖНО

ИГРА 18+

pack

RePack

MK11
pack

Легкие деньги

RePack

jed

RePack

fifa19

RePack

RDR2

RePack

NEED FOR SPEED™ PAYBACK

4 сезон

9 сезон

Бесстыжие 9 сезон

Все сериалы

все сериалы на PB.wtf

RePack

FAR CRY 5
  
Magnet ссылка

Игры джентльменов / The Ladykillers (Джоэл Коэн / Joel Coen, Итан Коэн / Ethan Coen) [2004 г., триллер, комедия, криминал, HDTVRip, Дубляж] pb.wtf

Игры джентльменов через торрент pb.wtf

Размер: 1.46 GB | Добавлен: 7 лет 6 мес. назад | Торрент скачан:277 раз
Скачать  

17-10-2013 10:26 Игры джентльменов Скачать торрент  

Игры джентльменов / The Ladykillers
Год выпуска: 2004
Страна: США
Жанр: триллер, комедия, криминал,
Продолжительность: 01:38:17
Перевод: Дубляж
Субтитры: отсутствуют
Режиссер: Джоэл Коэн / Joel Coen Итан Коэн / Ethan Coen
Продюссер: Итан Коэн, Джоэл Коэн, Том Джейкобсон
Сценарий: Джоэл Коэн, Итан Коэн, Уильям Роуз

Бюджет: $35 000 000
Премьера в мире: 26 марта 2004
http://www.imdb.com/title/tt0335245/
http://www.kinopoisk.ru/film/2885/
В ролях: Том Хэнкс, Ирма П. Холл, Марлон Уайанс, Дж.К. Симмонс, Тзи Ма, Райан Херст, Дайан Делано, Джордж Уоллес, Джон МакКоннелл, Джейсон Уивер,
Описание: Голдтуэйт Хиггинсон Дорр, странный профессор из южных штатов, разрабатывает план ограбления казино, базирующегося на речном корабле. Он собирает команду воров, снимает для них комнату в доме, владелицей которого является одна старая дама, миссис Мансон.




Качество: HDTVRip
Формат: AVI
Видео кодек: XviD
Аудио кодек: AC3
Видео: 720x384, 23.976 fps, 1727 kbps avg, 0.26 bit/pixel
Аудио#1: 48 kHz, AC3 Dolby Digital, 3/2 (L,C,R,l,r) + LFE ch, ~384.00 kbps avg
Релиз от: R.G. Jolly Roger






Общее
Полное имя : C:UsersРомикDocuments[R.G. Jolly Roger]Игры джентльменовIgri.Dgentlmenov.2004.BDRip.JRG.avi
Формат : AVI
Формат/Информация : Audio Video Interleave
Размер файла : 1,46 Гбайт
Продолжительность : 1 ч. 38 м.
Общий поток : 2120 Кбит/сек
Программа кодирования : VirtualDubMod 1.5.10.2 (build 2540/release)
Правообладатель : R.G. Jolly Roger

Видео
Идентификатор : 0
Формат : MPEG-4 Visual
Профиль формата : Advanced Simple@L5
Параметр BVOP формата : 2
Параметр QPel формата : Нет
Параметр GMC формата : Без точки перехода
Параметр матрицы формата : Default (MPEG)
Идентификатор кодека : XVID
Идентификатор кодека/Подсказка : XviD
Продолжительность : 1 ч. 38 м.
Битрейт : 1727 Кбит/сек
Ширина : 720 пикселей
Высота : 384 пикселя
Соотношение сторон : 1,85:1
Частота кадров : 23,976 кадра/сек
Цветовое пространство : YUV
Субдискретизация насыщенности : 4:2:0
Битовая глубина : 8 бит
Тип развёртки : Прогрессивная
Метод сжатия : С потерями
Бит/(Пиксели*Кадры) : 0.260
Размер потока : 1,19 Гбайт (81%)
Библиотека кодирования : XviD 1.2.0.dev47 (UTC 2006-11-01)

Аудио
Идентификатор : 1
Формат : AC-3
Формат/Информация : Audio Coding 3
Расширение режима : CM (complete main)
Параметр Endianness формата : Big
Идентификатор кодека : 2000
Продолжительность : 1 ч. 38 м.
Вид битрейта : Постоянный
Битрейт : 384 Кбит/сек
Каналы : 6 каналов
Расположение каналов : Front: L C R, Side: L R, LFE
Частота : 48,0 КГц
Битовая глубина : 16 бит
Метод сжатия : С потерями
Размер потока : 270 Мбайт (18%)
Выравнивание : Разделение по промежуткам
Продолжительность промежутка : 42 мс. (1,00 видеокадр)
Время предзагрузки промежутка : 500 мс.


Игры джентльменов скачать торрент


pb.wtf



Скачать Игры джентльменов через торрент https://pic.kartinco.top/images/4/nrql1.jpg Скачать фильм Игры джентльменов через торрент бесплантно в хорошем качестве Описание: Голдтуэйт Хиггинсон Дорр, странный профессор из южных штатов, разрабатывает план ограбления казино, базирующегося на речном ... 10 10 10
Info! Золотая раздача, скачанное не засчитывается.
Торрент: Зарегистрирован [2013-10-17 10:26] · скачан: 277 раз
Статус: √ проверено
Размер: 1.46 GB
Как cкачать? Как скачать Игры джентльменов через торрент | UTorrent

% Раздел Тема Автор DL S | L
Фильмы 2001-2005 [ 1.37 GB ] Игры джентльменов / Ladykillers The [2004 DVDRip] feldeger Скачать
1 | 0
Фильмы с авторской озвучкой [ 1.51 GB ] Игры джентльменов / Пришить старушку / The Ladykillers [2004 DVDRip] AVO + original eng -=Cherry=- Скачать
1 | 0
Фильмы (WEB-DL 720p, 1080p) [ 4.63 GB ] Игры джентльменов / Ladykillers The [2004 HDTVRip] EXEBET Скачать
1 | 0

28-11-2019 20:33  

Отключить всю рекламу на сайте

17-10-2013 10:51 Игры джентльменов Скачать торрент  

прикольный фильмpb.wtf



17-10-2013 11:46 Игры джентльменов Скачать торрент  

т.е. "убийцы ледей" по английски - это "игры джентльменов"?
прикольный английский изыг, оказываетсяpb.wtf



    Дорогой пользователь! Огромная просьба, поблагодарите релизера, оцените раздачу и оставьте свои комментарий, если Вы скачали Игры джентльменов через торрент бесплатно! Внесите свою лепту в развитие PiratBit!
    Комментировать посты могут только пользователи прошедшие не сложную регистрацию
    Показать сообщения:    

    Игры джентльменов через торрент
    Скачать бесплатно Игры джентльменов
    Игры джентльменов скачать торрент
    Игры джентльменов смотреть онлайн
    Cкачать фильм Игры джентльменов бесплатно
    Игры джентльменов скачать торрент в хорошем качестве
    Игры джентльменов смотреть онлайн бесплатно в хорошем качестве


    Вы не можете начинать темы
    Вы не можете отвечать на сообщения
    Вы не можете редактировать свои сообщения
    Вы не можете удалять свои сообщения
    Вы не можете голосовать в опросах
    Вы не можете прикреплять файлы к сообщениям
    Вы можете скачивать файлы