Ссылка на приватное зеркало нашего сайта всего за 1$. Внимание количество ограничено!!!

2 сезон

iTunes

1 сезон

1

iTunes

iTunes

iTunes

1 сезон

RePack

30

ИГРА 18+

pack

ВАЖНО

!!Акция!!

Alien_RageХит недели

RePack

MK11
pack

Забери бонус

RePack

jed

!!Акция!!

Alien_Rage

RePack

fifa19

RePack

Assassins Creed: Odyssey

RePack

NEED FOR SPEED™ PAYBACK

4 сезон

9 сезон

Бесстыжие 9 сезон

Все сериалы

все сериалы на PB.wtf

RePack

FAR CRY 5
  

Трансформеры 3: Тёмная сторона Луны / Transformers:3 Dark of the Moon (Майкл Бэй) [ г., фантастика, боевик, приключения, BDRip 1080p, Дубляж + Оригинал] pb.wtf

Трансформеры 3: Тёмная сторона Луны через торрент pb.wtf

Размер: 11.62 GB | Добавлен: 7 лет назад | Торрент скачан:516 раз
Скачать  

17-10-2013 15:04 Трансформеры 3: Тёмная сторона Луны Скачать торрент  

Трансформеры 3: Тёмная сторона Луны / Transformers:3 Dark of the Moon
Страна: США
Жанр: фантастика, боевик, приключения,
Перевод: Дубляж + Оригинал
Субтитры: русские , английские

Режиссер: Майкл Бэй

В ролях: Шайа ЛаБаф, Джош Дюамель, Джон Туртурро, Тайриз Гибсон, Роузи Хантингтон-Уайтли, Патрик Демпси, Кевин Данн, Джули Уайт, Джон Малкович, Питер Каллен,

Описание: Для наших героев наступили печальные будни: Сэм потерял Микаэлу, правительство выпускает законодательный акт о выселении Автоботов с Земли, а пока Мегатрон скрывается после позорного поражения Фоллена, десептикон Шокуэйв, правитель Кибертрона, готовится нанести визит нашей планете с совсем недобрыми намерениями. Действие заключительной части трилогии на этот раз охватит не только Землю, но и Луну, темная сторона которой хранит не менее темные тайны.

Качество: BDRip 1080p
Формат: MKV
Видео кодек: H.264
Аудио кодек: AC3
Видео: (1920x800),9500 Кбит/с, 23.976 кадра/сек
Аудио#1: AC-3, 6 ch, 640 kbps (Rus) 48.0 KHz Дубляж
Аудио#2: AC-3, 6 ch, 640 kbps (Eng) 48.0 KHz Оригинал
скриншот   скриншот   скриншот  

Тип потока: Видео
Длительность: 02:34:23
Кодек: AVC
Кодек/Профиль: High@L4.1
Кодек/ID: V_MPEG4/ISO/AVC
Кодек/CABAC: Yes
Кодек/ReFrames: 5 frames
Размеры изображения: 1920 x 800 (2.40:1)
Частота кадров: 23.976 fps
Размер потока: 10.0 GiB (86%)
Битрейт: 9 500 Kbps
Библиотека кодирования: x264 core 135 r2345 f0c1c53
Цветовое пространство: YUV
Тип развёртки: Progressive
Глубина: 8 bits
Настройки кодирования: cabac=1 / ref=5 / deblock=1:-3:-3 / analyse=0x3:0x133 / me=umh / subme=11 / psy=1 / psy_rd=1.00:0.00 / mixed_ref=1 / me_range=32 / chroma_me=1 / trellis=2 / 8x8dct=1 / cqm=0 / deadzone=21,11 / fast_pskip=0 / chroma_qp_offset=-2 / threads=12 / lookahead_threads=1 / sliced_threads=0 / nr=0 / decimate=1 / interlaced=0 / bluray_compat=0 / constrained_intra=0 / bframes=6 / b_pyramid=2 / b_adapt=2 / b_bias=0 / direct=3 / weightb=1 / open_gop=0 / weightp=2 / keyint=240 / keyint_min=23 / scenecut=40 / intra_refresh=0 / rc_lookahead=60 / rc=2pass / mbtree=0 / bitrate=9500 / ratetol=1.0 / qcomp=0.60 / qpmin=0 / qpmax=69 / qpstep=4 / cplxblur=20.0 / qblur=0.5 / vbv_maxrate=50000 / vbv_bufsize=62500 / nal_hrd=none / ip_ratio=1.40 / pb_ratio=1.30 / aq=1:0.90
:
Тип потока: Звук #1
Язык: Russian
Название: Rus
Длительность: 02:34:23.296
Кодек: AC-3
Кодек/ID: A_AC3
Частота дискретизации: 48.0 KHz
Каналов: 6 channels
Битрейт: 640 Kbps
Битрейт/тип: Constant
Размер потока: 707 MiB (6%)
Глубина: 16 bits
Метод сжатия: Lossy
:
Тип потока: Звук #2
Язык: English
Название: Eng
Длительность: 02:34:23.296
Кодек: AC-3
Кодек/ID: A_AC3
Частота дискретизации: 48.0 KHz
Каналов: 6 channels
Битрейт: 640 Kbps
Битрейт/тип: Constant
Размер потока: 707 MiB (6%)
Глубина: 16 bits
Метод сжатия: Lossy
:
Тип потока: Субтитры #1
Язык: Russian
Формат: UTF-8
Формат/подробно: UTF-8 Plain Text
Название: Rus forced
:
Тип потока: Субтитры #2
Язык: Russian
Формат: UTF-8
Формат/подробно: UTF-8 Plain Text
Название: Rus
:
Тип потока: Субтитры #3
Язык: English
Формат: UTF-8
Формат/подробно: UTF-8 Plain Text
Название: Eng

pb.wtf



Скачать Трансформеры 3: Тёмная сторона Луны через торрент http://pic.kartinco.top/images/4/jz5c4.jpg Скачать фильм Трансформеры 3: Тёмная сторона Луны через торрент бесплантно в хорошем качестве Описание: Для наших героев наступили печальные будни: Сэм потерял Микаэлу, правительство выпускает законодательный акт о выселении ... 10 10 31
Info! Золотая раздача, скачанное не засчитывается.
Торрент: Зарегистрирован [2013-10-17 15:04] · скачан: 516 раз
Статус: √ проверено
Размер: 11.62 GB
Как cкачать? Как скачать Трансформеры 3: Тёмная сторона Луны через торрент | qTorrent

% Раздел Тема Автор DL S | L
Ultra HD (UHD: 2K, 4K, 8K) — видео сверхвысокой чёткости [ 93.83 GB ] Трансформеры 3: Тёмная сторона Луны / Transformers: Dark of the Moon [2011 UHD BDRemux 2160p] DUB [] +MVO+2xAVO bober100 Скачать
1 | 0
Ultra HD (UHD: 2K, 4K, 8K) — видео сверхвысокой чёткости [ 97.37 GB ] Трансформеры 3: Тёмная сторона Луны / Transformers: Dark of the Moon [2011 UHD Blu-ray 2160p] DUB + MVO + AVO [Ю.Сербин] [Custom] sheker187 Скачать
1 | 0
Фильмы 2011 [ 2.25 GB ] Трансформеры 3: Тёмная сторона Луны / Transformers: Dark of the Moon [2011 BDRip лицензия] shuller Скачать
1 | 0
Фильмы 2011 [ 2.15 GB ] Трансформеры 3: Тёмная сторона Луны / Transformers: Dark of the Moon [2011 HDRip-AVC] Dean24 Скачать
1 | 0
Фильмы (Blu-ray, BD-Remux, HDDVD) [ 47.69 GB ] Трансформеры 3: Тёмная сторона Луны / Transformers: Dark of the Moon [2011 BDRemux 1080p] читерас Скачать
1 | 0
3D Фильмы [ 9.05 GB ] Трансформеры 3: Тёмная сторона Луны в 3D / Transformers: Dark of the Moon in 3D [2011 BDRip 1080p лицензия] Анаглиф slaventi-69 Скачать
1 | 0
Фильмы [HD 720p, 1080p] (Хороший звук DUB, MVO) [ 12.64 GB ] Трансформеры 3: Тёмная сторона Луны / Transformers: Dark of the Moon [2011 BDRip 720p] diletant Скачать
1 | 0

28-11-2019 20:33  

Отключить всю рекламу на сайте

    Дорогой пользователь! Огромная просьба, поблагодарите релизера, оцените раздачу и оставьте свои комментарий, если Вы скачали Трансформеры 3: Тёмная сторона Луны через торрент бесплатно! Внесите свою лепту в развитие PiratBit!
    Комментировать посты могут только пользователи прошедшие не сложную регистрацию
    Показать сообщения:    

    Трансформеры 3: Тёмная сторона Луны через торрент
    Скачать бесплатно Трансформеры 3: Тёмная сторона Луны
    Трансформеры 3: Тёмная сторона Луны скачать торрент
    Трансформеры 3: Тёмная сторона Луны смотреть онлайн
    Cкачать фильм Трансформеры 3: Тёмная сторона Луны бесплатно
    Трансформеры 3: Тёмная сторона Луны скачать торрент в хорошем качестве
    Трансформеры 3: Тёмная сторона Луны смотреть онлайн бесплатно в хорошем качестве


    Вы не можете начинать темы
    Вы не можете отвечать на сообщения
    Вы не можете редактировать свои сообщения
    Вы не можете удалять свои сообщения
    Вы не можете голосовать в опросах
    Вы не можете прикреплять файлы к сообщениям
    Вы можете скачивать файлы