2 сезон

iTunes

MVO

1

2 сезон

iTunes

iTunes

1 сезон

RePack

30

Новинка

ВАЖНО

ИГРА 18+

pack

RePack

MK11
pack

Легкие деньги

RePack

jed

RePack

fifa19

RePack

RDR2

RePack

NEED FOR SPEED™ PAYBACK

4 сезон

9 сезон

Бесстыжие 9 сезон

Все сериалы

все сериалы на PB.wtf

RePack

FAR CRY 5

Anonymous, доброй ночи, мы не успеваем собрать деньги на оплату серверов за декабрь и январь, помогите нам пожалуйста в это трудное время. В качестве благодарности мы отключим Вам всю рекламу на сайте (укажите свой ник в строку Ваше имя)!

×
  
Magnet ссылка

Эффект колибри / Hummingbird (Стивен Найт) [2013 г., Боевик, триллер, HDRip, Дубляж, Лицензия] pb.wtf

Эффект колибри через торрент pb.wtf

Размер: 1.45 GB | Добавлен: 7 лет 3 мес. назад | Торрент скачан:1519 раз
Скачать  

18-10-2013 13:15 Эффект колибри Скачать торрент  

Эффект колибри / Hummingbird
Год выпуска: 2013
Страна: США
Жанр: Боевик, триллер
Продолжительность: 01:40:03
Перевод: Профессиональный (полное дублирование) [Лицензия]

Режиссер: Стивен Найт
В ролях: Джейсон Стэтхэм, Ли Асквит-Коу, Вики МакКлюр, Йен Пири, Бенедикт Вонг, Сенем Темиз, Шиван Хьюлетт, Пол Блэкуэлл, Агата Бузек, Эдди Рубен




Описание:
Бывший спецназовец Джоуи Джонс пытается начать новую жизнь. Он соглашается работать на азиатскую мафию. Но проникая все глубже в криминальный мир родного города, он понимает, что не может спокойно смотреть на творящееся в нем беззаконие. Когда от рук бандитов погибает его возлюбленная Изабель, Джоуи решает восстановить справедливость. Он начинает расследование, которое ведет его на самый верх преступного синдиката.

Качество: HDRip
Формат: AVI
Видео кодек: XviD
Аудио кодек: AC3
Видео: 688x384, 23.976fps, 1675kbps
Аудио: Dolby, AC3, 48000Hz, 6ch, 384kbps
скриншот   скриншот   скриншот  

Код:

E:фильмыHummingbird.2013_HDRip.avi
   General
      Complete name : E:фильмыHummingbird.2013_HDRip.avi
      Format : AVI
      Format/Info : Audio Video Interleave
      File size : 1.45 GiB
      Duration : 1h 40mn
      Overall bit rate : 2 069 Kbps
      Writing application : VirtualDubMod 1.5.10.3 | www.virtualdub-fr.org || (build 2550/release)
      Writing library : VirtualDubMod build 2550/release
   Video #0
      ID : 0
      Format : MPEG-4 Visual
      Format profile : Advanced Simple@L5
      Format settings, BVOP : 1
      Format settings, QPel : No
      Format settings, GMC : No warppoints
      Format settings, Matrix : Custom
      Codec ID : XVID
      Codec ID/Hint : XviD
      Duration : 1h 40mn
      Bit rate : 1 676 Kbps
      Width : 688 pixels
      Height : 384 pixels
      Display aspect ratio : 16:9
      Frame rate : 23.976 fps
      Color space : YUV
      Chroma subsampling : 4:2:0
      Bit depth : 8 bits
      Scan type : Progressive
      Compression mode : Lossy
      Bits/(Pixel*Frame) : 0.265
      Stream size : 1.17 GiB (81%)
      Writing library : XviD 73
   Audio #1
      ID : 1
      Format : AC-3
      Format/Info : Audio Coding 3
      Mode extension : CM (complete main)
      Format settings, Endianness : Big
      Codec ID : 2000
      Duration : 1h 40mn
      Bit rate mode : Constant
      Bit rate : 384 Kbps
      Channel(s) : 6 channels
      Channel positions : Front: L C R, Side: L R, LFE
      Sampling rate : 48.0 KHz
      Bit depth : 16 bits
      Compression mode : Lossy
      Stream size : 275 MiB (19%)
      Alignment : Split accross interleaves
      Interleave, duration : 42 ms (1.00 video frame)
      Interleave, preload duration : 500 ms



pb.wtf



Скачать Эффект колибри через торрент http://pic.kartinco.top/images/4/xh56r.jpg Скачать фильм Эффект колибри через торрент бесплантно в хорошем качестве Описание: Бывший спецназовец Джоуи Джонс пытается начать новую жизнь. Он соглашается работать на азиатскую мафию. Но проникая все глубже в ... 9.6 10 41
Info! Золотая раздача, скачанное не засчитывается.
Торрент: Зарегистрирован [2013-10-18 13:15] · скачан: 1 519 раз
Статус: √ проверено
Размер: 1.45 GB
Как cкачать? Как скачать Эффект колибри через торрент | UTorrent

% Раздел Тема Автор DL S | L
Фильмы (DVD фильмы) [ 6.23 GB ] Эффект колибри / Hummingbird [2013 DVD9] R5 voovaz Скачать
1 | 0
Фильмы 2013 [DVDrip, WEB-DLRip, HDrip] [ 2.09 GB ] Эффект колибри / Hummingbird [2013 BDRip ] coc900 Скачать
1 | 0
Фильмы (Blu-ray, BD-Remux, HDDVD) [ 18.07 GB ] Эффект колибри / Hummingbird [2013 BD-Remux + Оригинал] Бумер Скачать
1 | 0
Фильмы (Blu-ray, BD-Remux, HDDVD) [ 16.68 GB ] Эффект колибри / Hummingbird [ 2013 BD Remux ] DUB Ворон Скачать
1 | 0
Фильмы [HD 720p, 1080p] (Хороший звук DUB, MVO) [ 8.17 GB ] Эффект колибри / Hummingbird [2013 BDRip [ Russia] лисяра Скачать
1 | 0

28-11-2019 20:33  

Отключить всю рекламу на сайте

    Дорогой пользователь! Огромная просьба, поблагодарите релизера, оцените раздачу и оставьте свои комментарий, если Вы скачали Эффект колибри через торрент бесплатно! Внесите свою лепту в развитие PiratBit!
    Комментировать посты могут только пользователи прошедшие не сложную регистрацию
    Показать сообщения:    

    Эффект колибри через торрент
    Скачать бесплатно Эффект колибри
    Эффект колибри скачать торрент
    Эффект колибри смотреть онлайн
    Cкачать фильм Эффект колибри бесплатно
    Эффект колибри скачать торрент в хорошем качестве
    Эффект колибри смотреть онлайн бесплатно в хорошем качестве


    Вы не можете начинать темы
    Вы не можете отвечать на сообщения
    Вы не можете редактировать свои сообщения
    Вы не можете удалять свои сообщения
    Вы не можете голосовать в опросах
    Вы не можете прикреплять файлы к сообщениям
    Вы можете скачивать файлы