1 сезон

3 сезон

iTunes

1

iTunes

MVO

iTunes

13

1 сезон

RePack

30

Deluxe

pack

Лицензия

ВАЖНО

ИГРА 18+

pack

RePack

MK11

RePack

jed

RePack

fifa19

RePack

RDR2

RePack

NEED FOR SPEED™ PAYBACK

4 сезон

9 сезон

Бесстыжие 9 сезон

Все сериалы

все сериалы на PB.wtf

RePack

FAR CRY 5

Anonymous, доброй ночи, мы катастрофически не успеваем собрать деньги на оплату серверов, помогите нам пожалуйста 5,10,15р., для нас важна любая помощь . В качестве благодарности мы отключим Вам всю рекламу на сайте (укажите свой ник в строку Ваше имя)!

×
  
Magnet ссылка

Мерзлая земля / The Frozen Ground (Скотт Уокер / Scott Walker) [2013, триллер, криминал, биография, DVD5] R5 pb.wtf

Мерзлая земля через торрент pb.wtf

Размер: 4.16 GB | Добавлен: 7 лет 9 мес. назад | Торрент скачан:152 раза
Скачать  

18-10-2013 22:09 Мерзлая земля Скачать торрент  


Мерзлая земля / The Frozen Ground
«Охотник становится жертвой»
Страна: США
Студия: Cheetah Vision, Court Five Productions, Emmett/Furla Films, Envision Entertainment Corporation, K5 International, Sakonnet Capital Partners, Valentina Films
Жанр: триллер, криминал, биография
Год выпуска: 2013
Мировая премьера: 11 июля 2013
Российская премьера: 25 июля 2013
Дата выхода DVD: 8 октября 2013
Дата выхода Blu-Ray: 22 октября 2013
Продолжительность: 01:40:47
Перевод: Профессиональный (дублированный) [Лицензия]
Cубтитры: нет
Оригинальная аудиодорожка: нет
Режиссер: Скотт Уокер / Scott Walker
В ролях: Николас Кейдж, Джон Кьюсак, Ванесса Энн Хадженс, Дин Норрис, Джина Мантенья, Роберт Форджит, Брэд Хенке, Майкл МакГрэйди, Кэтрин ЛаНаса, Райан О’Нан...
Описание: Все были уверены, что Роберт Хансен — приличный семьянин, владелец пекарни и славный охотник. Никто не подозревал, что на самом деле он — безжалостный маньяк, который похитил и убил более двадцати женщин. И только 17-летней Синди Полсон удалось сбежать от убийцы. Она наводит на след маньяка полицейского, который начинает опасное расследование. Ему никто не верит: Хансен — слишком приличный человек для такого обвинения… Но упорный коп знает свое дело и должен дойти до конца…
Бонусы: Скоро на DVD

Релиз группы:
Качество: DVD5 R5
Формат: DVD-Video
Видео кодек: MPEG2
Аудио кодек: AC3
Видео: PAL 16:9 (720x576(0.505)) MPEG Video, 25,000 кадр/сек, 5241 Кбит/сек
Аудио: Russian (Dolby AC3, 6 ch) 384 Кбит/сек, 48,0 КГц



Title: Merzlaja.zemlja.2013.DVD5
Size: 4.16 Gb ( 4 360 886,00 KBytes ) - DVD-5
Enabled regions: 1, 2, 3, 4, 5, 6, 7, 8

VTS_01 :
Play Length: 01:40:47
Video: PAL 16:9 (720x576) VBR, Auto Letterboxed
Audio:
Russian (Dolby AC3, 6 ch)

VTS_02 :
Play Length: 00:08:25
Video: PAL 16:9 (720x576) VBR, Auto Letterboxed
Audio:
Not specified (Dolby AC3, 2 ch)

* Menus Information *

VIDEO_TS Menu
Video:
PAL 16:9 (720x576) VBR
Auto Pan&Scan
Audio:
Not specified (Dolby AC3, 2 ch)
Russian Language Unit :
Title Menu

VTS_01 Menu
Video:
PAL 16:9 (720x576) VBR
Auto Pan&Scan
Audio:
Not specified (Dolby AC3, 6 ch)
Russian Language Unit :
Root Menu
Chapter (PTT) Menu

VTS_02 Menu
Video:
NTSC 4:3 (720x480) VBR
Auto Pan&Scan, Auto Letterboxed
Russian Language Unit :
Root Menu
Общее
Полное имя : F:Новинки 2013Merzlaja.zemlja.2013.DVD5VIDEO_TSVTS_01_2.VOB
Формат : MPEG-PS
Размер файла : 1024 Мбайт
Продолжительность : 24 м.
Режим общего битрейта : Переменный
Общий поток : 5739 Кбит/сек

Видео
Идентификатор : 224 (0xE0)
Формат : MPEG Video
Версия формата : Version 2
Профиль формата : Main@Main
Параметр BVOP формата : Да
Параметр матрицы формата : Выборочная
Параметр GOP формата : Variable
Продолжительность : 24 м.
Вид битрейта : Переменный
Битрейт : 5241 Кбит/сек
Максимальный битрейт : 9000 Кбит/сек
Ширина : 720 пикселей
Высота : 576 пикселей
Соотношение сторон : 16:9
Частота кадров : 25,000 кадров/сек
Стандарт вещания : PAL
Цветовое пространство : YUV
Субдискретизация насыщенности : 4:2:0
Битовая глубина : 8 бит
Тип развёртки : Прогрессивная
Порядок развёртки : Верхнее поле первое
Метод сжатия : С потерями
Бит/(Пиксели*Кадры) : 0.505
Временной код первого кадра : 01:26:58:06
Оригинал временного кода : Group of pictures header
Размер потока : 935 Мбайт (91%)

Аудио
Идентификатор : 189 (0xBD)-128 (0x80)
Формат : AC-3
Формат/Информация : Audio Coding 3
Расширение режима : CM (complete main)
Параметр Endianness формата : Big
Режим смешивания : DVD-Video
Продолжительность : 24 м.
Вид битрейта : Постоянный
Битрейт : 384 Кбит/сек
Каналы : 6 каналов
Расположение каналов : Front: L C R, Side: L R, LFE
Частота : 48,0 КГц
Битовая глубина : 16 бит
Метод сжатия : С потерями
Задержка видео : -624 мс.
Размер потока : 68,5 Мбайт (7%)










pb.wtf



Скачать Мерзлая земля через торрент http://i58.fastpic.ru/big/2013/1019/2d/35058d975fc027f8c37ffcc7aa80032d.png Скачать фильм Мерзлая земля через торрент бесплантно в хорошем качестве Описание: Все были уверены, что Роберт Хансен — приличный семьянин, владелец пекарни и славный охотник. Никто не подозревал, что на самом ... 9.9 10 7
Info! Золотая раздача, скачанное не засчитывается.
Торрент: Зарегистрирован [2013-10-18 22:09] · скачан: 152 раз
Статус: √ проверено
Размер: 4.16 GB
Как cкачать? Как скачать Мерзлая земля через торрент | UTorrent

28-11-2019 20:33  

Отключить всю рекламу на сайте

    Дорогой пользователь! Огромная просьба, поблагодарите релизера, оцените раздачу и оставьте свои комментарий, если Вы скачали Мерзлая земля через торрент бесплатно! Внесите свою лепту в развитие PiratBit!
    Комментировать посты могут только пользователи прошедшие не сложную регистрацию
    Показать сообщения:    

    Мерзлая земля через торрент
    Скачать бесплатно Мерзлая земля
    Мерзлая земля скачать торрент
    Мерзлая земля смотреть онлайн
    Cкачать фильм Мерзлая земля бесплатно
    Мерзлая земля скачать торрент в хорошем качестве
    Мерзлая земля смотреть онлайн бесплатно в хорошем качестве


    Вы не можете начинать темы
    Вы не можете отвечать на сообщения
    Вы не можете редактировать свои сообщения
    Вы не можете удалять свои сообщения
    Вы не можете голосовать в опросах
    Вы не можете прикреплять файлы к сообщениям
    Вы можете скачивать файлы