Всегда рабочее зеркало без VPN и Proxy просто перед .vidak.icu напиши любое слово или цифру, Пример http://u97w.vidak.icu

MVO

MVO

1 сезон

1

1 сезон

iTunes

1 сезон

13

1 сезон

Deluxe

pack

Рекомендуем

Repack

30

ВАЖНО

RePack

MK11

RePack

jed

RePack

fifa19

RePack

RDR2

RePack

NEED FOR SPEED™ PAYBACK

Кинопоиск HD

6 сезон

 Острые козырьки 6 сезон

Все сериалы

все сериалы на PB.wtf

RePack

FAR CRY 5
  
Magnet ссылка

Скорость мысли / The Speed of Thought (Ивэн Оппенхаймер / Evan Oppenheimer) [ 2011 , США , триллер , HDRip , MVO] pb.wtf

Скорость мысли через торрент pb.wtf

Размер: 1.36 GB | Добавлен: 8 лет 9 мес. назад | Торрент скачан:280 раз
Смотреть онлайн Скорость мысли | Скачать    Ребята, помогите собрать деньги на оплату серверов!!!

19-10-2013 05:30 Скорость мысли Скачать торрент  

Скорость мысли / The Speed of ThoughtГод выпуска:2011
Страна: США
Жанр: триллер

Продолжительность: 01:33:42
Перевод: Профессиональный (многоголосый, закадровый)

Субтитры: Нет
Режиссер: Ивэн Оппенхаймер / Evan Oppenheimer

В ролях: Ник Стал (Joshua Lazarus), Миа Маэстро (Anna Manheim), Тэрин Мэннинг (Kira), Блэр Браун (Bridger), Уоллес Шоун (Sandy), Стефания Торторелла (Emily / Vanessa), Майк Романо (Bobby), Хорхе Сабате (Diaz), Алан Брукс (Smith), Alvaro Ciapesone (Weston), Jacqueline Henderson (First Woman in Bar), Juan Luis Granato (Man in Bar)
Описание:
У Джошуа от природы дар - читать мысли других людей. Он работает на правительство и готовится к заданию по предотвращению терактов. Он влюблен в свою коллегу Анну. Однажды он получает информацию, что новое задание может стать для него и для Анны последним. Правительство подставит их. С помощью своей подруги Киры он пытается распутать паутины лжи, остаться в живых и спасти Анну.
Рейтинг
kinopoisk.ru: 5.167 (19)
imdb.com: 4.70 (985)
Качество: HDRip
Формат: AVI
Видео кодек: XviD
Аудио кодек: AC3
Видео: XviD, 704x392 (16:9), 1883 kbps, 23,976 fps, 0,285 bpp
Аудио: AC3 / 2.0 / 48 kHz / 192 kbps / 16 bit© Оформление by ФёдорOFF
General
Complete name : D:раздачиSkorost.mysli.2011.HDRip.avi
Format : AVI
Format/Info : Audio Video Interleave
File size : 1.36 GiB
Duration : 1h 33mn
Overall bit rate : 2 085 Kbps
Writing application : VirtualDubMod 1.5.10.2 (build 2540/release)
Writing library : VirtualDubMod build 2540/release

Video
ID : 0
Format : MPEG-4 Visual
Format profile : Advanced [email protected]
Format settings, BVOP : 1
Format settings, QPel : No
Format settings, GMC : No warppoints
Format settings, Matrix : Default (MPEG)
Codec ID : XVID
Codec ID/Hint : XviD
Duration : 1h 33mn
Bit rate : 1 884 Kbps
Width : 704 pixels
Height : 392 pixels
Display aspect ratio : 16:9
Frame rate : 23.976 fps
Color space : YUV
Chroma subsampling : 4:2:0
Bit depth : 8 bits
Scan type : Progressive
Compression mode : Lossy
Bits/(Pixel*Frame) : 0.285
Stream size : 1.23 GiB (90%)
Writing library : XviD 1.2.1 (UTC 2008-12-04)

Audio
ID : 1
Format : AC-3
Format/Info : Audio Coding 3
Mode extension : CM (complete main)
Codec ID : 2000
Duration : 1h 33mn
Bit rate mode : Constant
Bit rate : 192 Kbps
Channel(s) : 2 channels
Channel positions : Front: L R
Sampling rate : 48.0 KHz
Bit depth : 16 bits
Compression mode : Lossy
Stream size : 129 MiB (9%)
Alignment : Aligned on interleaves
Interleave, duration : 42 ms (1.00 video frame)
Interleave, preload duration : 512 ms
pb.wtf



Скачать Скорость мысли через торрент http://i1.imageban.ru/out/2013/10/19/24d6ec520068fd1823a8db7b701514d7.jpg Скачать, смотреть онлайн Скорость мысли бесплантно в хорошем качестве Описание: У Джошуа от природы дар - читать мысли других людей. Он работает на правительство и готовится к заданию по предотвращению ... 9.9 10 14
Info! Золотая раздача, скачанное не засчитывается.
Торрент: Зарегистрирован [2013-10-19 05:30] · скачан: 280 раз
Статус: √ проверено
Размер: 1.36 GB
Как cкачать? Как скачать Скорость мысли через торрент | UTorrent

28-11-2019 20:33  

Отключить вcю реклaмy на сайте

19-10-2013 08:59 Скорость мысли Скачать торрент  

Рад, если кому-то реально понравилось pb.wtf



    Дорогой пользователь! Огромная просьба, поблагодарите релизера, оцените раздачу и оставьте свои комментарий, если Вы скачали Скорость мысли через торрент бесплатно!
    Комментировать посты могут только пользователи прошедшие не сложную регистрацию
    Показать сообщения:    

    Скорость мысли через торрент
    Скачать бесплатно Скорость мысли
    Скорость мысли скачать торрент
    Скорость мысли смотреть онлайн
    Cкачать фильм Скорость мысли бесплатно
    Скорость мысли скачать торрент в хорошем качестве
    Скорость мысли смотреть онлайн бесплатно в хорошем качестве


    Вы не можете начинать темы
    Вы не можете отвечать на сообщения
    Вы не можете редактировать свои сообщения
    Вы не можете удалять свои сообщения
    Вы не можете голосовать в опросах
    Вы не можете прикреплять файлы к сообщениям
    Вы можете скачивать файлы