2 сезон

iTunes

MVO

1

2 сезон

iTunes

iTunes

1 сезон

RePack

30

Новинка

ВАЖНО

ИГРА 18+

pack

RePack

MK11
pack

Легкие деньги

RePack

jed

RePack

fifa19

RePack

RDR2

RePack

NEED FOR SPEED™ PAYBACK

4 сезон

9 сезон

Бесстыжие 9 сезон

Все сериалы

все сериалы на PB.wtf

RePack

FAR CRY 5

Anonymous, добрый день, мы не успеваем собрать деньги на оплату серверов за декабрь и январь, помогите нам пожалуйста в это трудное время. В качестве благодарности мы отключим Вам всю рекламу на сайте (укажите свой ник в строку Ваше имя)!

×
  
Magnet ссылка

Ночь страха 2: Свежая кровь / Fright Night 2 (Эдуардо Родригез / Eduardo Rodriguez) [2013, США, ужасы, комедия, HDRip, Профессиональный (многоголосый, закадровый)[Цифровая лицензия/iTunes] pb.wtf

Ночь страха 2: Свежая кровь через торрент pb.wtf

Размер: 1.46 GB | Добавлен: 7 лет 3 мес. назад | Торрент скачан:1204 раза
Скачать  

19-10-2013 13:28 Ночь страха 2: Свежая кровь Скачать торрент  


Ночь страха 2: Свежая кровь / Fright Night 2


  • Год выпуска:2013
  • Страна:США
  • Жанр:ужасы, комедия

  • Продолжительность: 01:39:41
  • Перевод:Профессиональный (многоголосый, закадровый)[Цифровая лицензия/iTunes]

  • Субтитры: Нет
    • Режиссер:Эдуардо Родригез / Eduardo Rodriguez

  • В ролях:Уилл Пэйн (Charley Brewster), Джейми Мюррэй (Gerri Dandridge), Шон Пауэр (Peter Vincent), Саша Паркинсон (Amy Peterson), Крис Уоллер («Evil» Ed Bates), Джон-Кристиан Бейтман (Chaperone), Лиана Маргиняну (Old Lady), Алина Минзу (Shayla Sunshine), Ади Хостиук (Dragomir), Джоэль Коутинью (French Girl), Ada Gales (Hostel Clerk), Константин Барбулеску (Inspector Constantin)
    • Описание:
      Молодые студенты колледжа внезапно узнают страшную правду о своем новом профессоре. Оказывается, их профессор - красивая молодая женщина Джерри Дэндридж - настоящая вампирша! Пытаясь донести это до остальных, ребята, сами того не желая, подписали себе смертный приговор. Потому что Джерри совершенно не хочет, чтобы ее тайна стала достоянием общественности...

    • Качество:HDRip
    • Формат:AVI
    • Видео кодек: XviD
    • Аудио кодек:AC3
    • Видео: XviD, 720x400 (16:9), 1698 kbps, 23,976 fps, 0,246 bpp
    • Аудио: AC3 / 5.1 / 48 kHz / 384 kbps / 16 bit

    • Сиквел был запущен в производство еще до выхода оригинального фильма, однако после провала ленты в прокате, работа над второй частью была приостановлена. Позже студией было принято решение снять фильм, однако вместо широкого/ограниченного проката проект встал в сетку «прямо-на-видео».
    • Съемки фильма проходили в Румынии в 2012 году.
    • Планировалось пригласить Антона Ельчина сняться в камео, однако из-за ограниченного бюджета от идеи отказались.
    General
    Complete name : D:ТорентыNoch.Straha.2.2013.P.HDRip.1.46Gb.avi
    Format : AVI
    Format/Info : Audio Video Interleave
    File size : 1.46 GiB
    Duration : 1h 39mn
    Overall bit rate : 2 092 Kbps
    Writing application : VirtualDubMod 1.5.10.3 (build 2550/release)
    Writing library : VirtualDubMod build 2550/release

    Video
    ID : 0
    Format : MPEG-4 Visual
    Format profile : Advanced Simple@L5
    Format settings, BVOP : 2
    Format settings, QPel : No
    Format settings, GMC : No warppoints
    Format settings, Matrix : Custom
    Codec ID : XVID
    Codec ID/Hint : XviD
    Duration : 1h 39mn
    Bit rate : 1 699 Kbps
    Width : 720 pixels
    Height : 400 pixels
    Display aspect ratio : 16:9
    Frame rate : 23.976 fps
    Color space : YUV
    Chroma subsampling : 4:2:0
    Bit depth : 8 bits
    Scan type : Progressive
    Compression mode : Lossy
    Bits/(Pixel*Frame) : 0.246
    Stream size : 1.18 GiB (81%)
    Writing library : XviD 1.2.1 (UTC 2008-12-04)

    Audio
    ID : 1
    Format : AC-3
    Format/Info : Audio Coding 3
    Mode extension : CM (complete main)
    Codec ID : 2000
    Duration : 1h 39mn
    Bit rate mode : Constant
    Bit rate : 384 Kbps
    Channel(s) : 6 channels
    Channel positions : Front: L C R, Side: L R, LFE
    Sampling rate : 48.0 KHz
    Bit depth : 16 bits
    Compression mode : Lossy
    Stream size : 274 MiB (18%)
    Alignment : Split accross interleaves
    Interleave, duration : 42 ms (1.00 video frame)
    Interleave, preload duration : 500 ms

    © Оформление by Vetal
    pb.wtf



  • Скачать Ночь страха 2: Свежая кровь через торрент http://i58.fastpic.ru/big/2013/0922/31/4683bcd4960801b02604b79f43d30631.png Скачать фильм Ночь страха 2: Свежая кровь через торрент бесплантно в хорошем качестве Описание:Молодые студенты колледжа внезапно узнают страшную правду о своем новом профессоре. Оказывается, их профессор - красивая молодая ... 9.2 10 35
    Info! Золотая раздача, скачанное не засчитывается.
    Торрент: Зарегистрирован [2013-10-19 13:28] · скачан: 1 204 раз
    Статус: √ проверено
    Размер: 1.46 GB
    Как cкачать? Как скачать Ночь страха 2: Свежая кровь через торрент | UTorrent

    % Раздел Тема Автор DL S | L
    Фильмы 2013 [DVDrip, WEB-DLRip, HDrip] [ 1.46 GB ] Ночь страха 2: Свежая кровь / Fright Night 2 [2013 BDRip-AVC многоголосый ] potroks Скачать
    1 | 0
    Фильмы (DVD фильмы) [ 6.04 GB ] Ночь страха 2: Свежая кровь / Fright Night 2 [2013 DVD9] R5 voovaz Скачать
    1 | 0
    Фильмы 2013 [DVDrip, WEB-DLRip, HDrip] [ 702 MB ] Ночь страха 2: Свежая кровь / Fright Night 2 [2013 HDRip многоголосый ] coc900 Скачать
    1 | 0

    28-11-2019 20:33  

    Отключить всю рекламу на сайте

    19-10-2013 13:37 Ночь страха 2: Свежая кровь Скачать торрент  

    Рейтинг кинопоиска не вселяет оптимизма pb.wtf



    19-10-2013 14:05 Ночь страха 2: Свежая кровь Скачать торрент  

    mak9824 писал(а):

    Рейтинг кинопоиска не вселяет оптимизма

    А я дак не всегда смотрю на кинопоиск, у людей много мненийpb.wtf



    22-10-2013 09:20 Ночь страха 2: Свежая кровь Скачать торрент  

    не очень фильм, зря время потратилpb.wtf



    23-10-2013 12:40 Ночь страха 2: Свежая кровь Скачать торрент  

    полный отстойpb.wtf



    15-11-2013 16:05 Ночь страха 2: Свежая кровь Скачать торрент  

    опять на названии бабло клепают! pb.wtf



    20-11-2013 19:17 Ночь страха 2: Свежая кровь Скачать торрент  

    как достали эти фильмы про вампиров , после интервью ничего стоящего , один порожняк гонят , а всех цепляет эта хрень :smok:pb.wtf



      Дорогой пользователь! Огромная просьба, поблагодарите релизера, оцените раздачу и оставьте свои комментарий, если Вы скачали Ночь страха 2: Свежая кровь через торрент бесплатно! Внесите свою лепту в развитие PiratBit!
      Комментировать посты могут только пользователи прошедшие не сложную регистрацию
      Показать сообщения:    

      Ночь страха 2: Свежая кровь через торрент
      Скачать бесплатно Ночь страха 2: Свежая кровь
      Ночь страха 2: Свежая кровь скачать торрент
      Ночь страха 2: Свежая кровь смотреть онлайн
      Cкачать фильм Ночь страха 2: Свежая кровь бесплатно
      Ночь страха 2: Свежая кровь скачать торрент в хорошем качестве
      Ночь страха 2: Свежая кровь смотреть онлайн бесплатно в хорошем качестве


      Вы не можете начинать темы
      Вы не можете отвечать на сообщения
      Вы не можете редактировать свои сообщения
      Вы не можете удалять свои сообщения
      Вы не можете голосовать в опросах
      Вы не можете прикреплять файлы к сообщениям
      Вы можете скачивать файлы