Ссылка на приватное зеркало нашего сайта всего за 1$. Внимание количество ограничено!!!

2 сезон

iTunes

1 сезон

1

iTunes

iTunes

iTunes

1 сезон

RePack

30

ИГРА 18+

pack

ВАЖНО

!!Акция!!

Alien_RageХит недели

RePack

MK11
pack

Забери бонус

RePack

jed

!!Акция!!

Alien_Rage

RePack

fifa19

RePack

Assassins Creed: Odyssey

RePack

NEED FOR SPEED™ PAYBACK

4 сезон

9 сезон

Бесстыжие 9 сезон

Все сериалы

все сериалы на PB.wtf

RePack

FAR CRY 5
  

Рок-н-ролл под Кремлём (1-4 серии из 4)(Евгений Сологалов) [2013, Боевик, детектив, SATRip] pb.wtf

Рок-н-ролл под Кремлём через торрент pb.wtf

Размер: 2.4 GB | Добавлен: 7 лет назад | Торрент скачан:869 раз
Скачать  

19-10-2013 20:15 Рок-н-ролл под Кремлём Скачать торрент  

Рок-н-ролл под Кремлём (ТВ)

Год выпуска: 2013
Страна: Россия
Жанр: Боевик, детектив
Продолжительность: 4 х 00:45:26
Перевод: Не требуется

Режиссер: Евгений Сологалов

В ролях: Дмитрий Ратомский, Александр Барановский, Всеволод Болдин, Кирилл Каганович, Мария Малиновская (Бурыкина), Сергей Багаев, Александр Никольский (II), Валерий Новиков

Описание: В руки молодого выпускника академии ФСБ Юрия Евсеева попадает кассета, на которой записан вербовочный разговор агента ЦРУ и выпускника летного училища. Анализ показывает, что этой записи уже 30 лет. Молодой лейтенант Евсеев обнаруживает прослушивающее устройство и пытается выйти на шпиона. Но расследование только кажется бесперспективным…



Качество: SATRip
Формат: AVI
Видео кодек: XviD
Аудио кодеk: MP3
Видео: 704x400 (16:9), 25.000 fps, XviD, 1 795 Kbps
Аудио: Аудио #1: MP3 , 128 Kbps, 48.0 KHz, 2 ch

Код:

General
Complete name                    : 1.avi
Format                           : AVI
Format/Info                      : Audio Video Interleave
File size                        : 628 MiB
Duration                         : 45mn 26s
Overall bit rate                 : 1 932 Kbps
Writing library                  : VirtualDub build 32507/release

Video
ID                               : 0
Format                           : MPEG-4 Visual
Format profile                   : Advanced Simple@L5
Format settings, BVOP            : Yes
Format settings, QPel            : No
Format settings, GMC             : No warppoints
Format settings, Matrix          : Default (H.263)
Muxing mode                      : Packed bitstream
Codec ID                         : XVID
Codec ID/Hint                    : XviD
Duration                         : 45mn 26s
Bit rate                         : 1 795 Kbps
Width                            : 704 pixels
Height                           : 400 pixels
Display aspect ratio             : 16:9
Frame rate                       : 25.000 fps
Color space                      : YUV
Chroma subsampling               : 4:2:0
Bit depth                        : 8 bits
Scan type                        : Progressive
Bits/(Pixel*Frame)               : 0.255
Stream size                      : 583 MiB (93%)
Writing library                  : XviD 1.1.2 (UTC 2006-11-01)

Audio
ID                               : 1
Format                           : MPEG Audio
Format version                   : Version 1
Format profile                   : Layer 3
Mode                             : Joint stereo
Mode extension                   : MS Stereo
Codec ID                         : 55
Codec ID/Hint                    : MP3
Duration                         : 45mn 26s
Bit rate mode                    : Constant
Bit rate                         : 128 Kbps
Channel(s)                       : 2 channels
Sampling rate                    : 48.0 KHz
Stream size                      : 41.6 MiB (7%)
Alignment                        : Split accross interleaves
Interleave, duration             : 40 ms (1.00 video frame)
Interleave, preload duration     : 500 ms





pb.wtf



Скачать Рок-н-ролл под Кремлём через торрент http://i58.fastpic.ru/big/2013/1019/08/565e955be4f0919cf8037d3a068fcc08.jpg Скачать фильм Рок-н-ролл под Кремлём через торрент бесплантно в хорошем качестве Описание: В руки молодого выпускника академии ФСБ Юрия Евсеева попадает кассета, на которой записан вербовочный разговор агента ЦРУ и ... 9.1 10 33
Info! Золотая раздача, скачанное не засчитывается.
Торрент: Зарегистрирован [2013-10-19 20:15] · скачан: 869 раз
Статус: √ проверено
Размер: 2.4 GB
Как cкачать? Как скачать Рок-н-ролл под Кремлём через торрент | qTorrent

% Раздел Тема Автор DL S | L
Детективы, Боевики, Триллеры [ 886 MB ] Корецкий Данил - Рок-н-ролл под Кремлём 5. Освобождение шпиона [Сергей Дидок 2012 128 kbps MP3] Бумер Скачать
1 | 0
Детективы, Боевики, Триллеры [ 804 MB ] Данил Корецкий - Рок-н-ролл под Кремлём.4. Еще один шпион [Сергей Сафронов 2012 128 kbps MP3] Бумер Скачать
1 | 0
Детективы, Боевики, Триллеры [ 1.19 GB ] Данил Корецкий - Рок-н-ролл под Кремлём 3. Спасти шпиона [Александр Андриенко 2009 128 kbps MP3] Бумер Скачать
1 | 0
Детективы, Боевики, Триллеры [ 1.16 GB ] Данил Корецкий - Рок-н-ролл под Кремлём 2. Найти шпиона [Олег Исаев 2008 192 kbps MP3] Бумер Скачать
1 | 0
Детективы, Боевики, Триллеры [ 1.19 GB ] Данил Корецкий - Рок-н-ролл под Кремлем [Олег Исаев 2008 192 kbps MP3] Бумер Скачать
1 | 0

28-11-2019 20:33  

Отключить всю рекламу на сайте

20-10-2013 00:16 Рок-н-ролл под Кремлём Скачать торрент  

видео камера у людей была VHS)pb.wtf



20-10-2013 07:48 Рок-н-ролл под Кремлём Скачать торрент  

Люблю Корецкого ,почти все книги его прочитал , а Рок-ролл , считаю одним из лучших . Посмотрим , как получилась экранизация , хотелось бы не разочароваться....
Автору релиза ,респект за труд.pb.wtf



20-10-2013 15:02 Рок-н-ролл под Кремлём Скачать торрент  

Ну ,что посмотрел...Скажу так ,совпадение с книгой почти 90%, а не большие ньюансы заметит только тот, кто читал оригинал.В целом получилось не плохо ,поклонникам творчества Д.Корецкого ,смотреть обязательно.
PS:Кстати в роли генерала ФСБ , снялся сам автор книги.pb.wtf



29-10-2013 17:02 Рок-н-ролл под Кремлём Скачать торрент  

ты смотрел, что выложил, одни кубики и смотреть не возможно!!!pb.wtf



    Дорогой пользователь! Огромная просьба, поблагодарите релизера, оцените раздачу и оставьте свои комментарий, если Вы скачали Рок-н-ролл под Кремлём через торрент бесплатно! Внесите свою лепту в развитие PiratBit!
    Комментировать посты могут только пользователи прошедшие не сложную регистрацию
    Показать сообщения:    

    Рок-н-ролл под Кремлём через торрент
    Скачать бесплатно Рок-н-ролл под Кремлём
    Рок-н-ролл под Кремлём скачать торрент
    Рок-н-ролл под Кремлём смотреть онлайн
    Cкачать фильм Рок-н-ролл под Кремлём бесплатно
    Рок-н-ролл под Кремлём скачать торрент в хорошем качестве
    Рок-н-ролл под Кремлём смотреть онлайн бесплатно в хорошем качестве


    Вы не можете начинать темы
    Вы не можете отвечать на сообщения
    Вы не можете редактировать свои сообщения
    Вы не можете удалять свои сообщения
    Вы не можете голосовать в опросах
    Вы не можете прикреплять файлы к сообщениям
    Вы можете скачивать файлы