Ссылка на приватное зеркало всего за 1$. Внимание количество ограничено!!!

iTunes

iTunes

iTunes

1

iTunes

iTunes

iTunes

iTunes

iTunes

30
pack

$ от Little Big

ВАЖНО

!!Акция!!

Alien_RageХит недели

RePack

Resident Evil 21

ИГРА 18+

pack

RePack

jed

!!Акция!!

Alien_Rage

RePack

fifa19

RePack

Assassins Creed: Odyssey

RePack

NEED FOR SPEED™ PAYBACK

4 сезон

9 сезон

Бесстыжие 9 сезон

Все сериалы

все сериалы на PB.wtf

RePack

FAR CRY 5
  

Приглашение на развод / Divorce Invitation (С.В.Кришна Редди) [2012 г., мелодрама, комедия, WEB-DLRip 720p, Профессиональный двухголосый] pb.wtf

Приглашение на развод через торрент pb.wtf

Размер: 2.81 GB | Добавлен: 6 лет 8 мес. назад | Торрент скачан:109 раз
Скачать  

20-10-2013 03:03 Приглашение на развод Скачать торрент  

Приглашение на развод / Divorce Invitation
Год выпуска: 2012
Страна: США
Жанр: мелодрама, комедия,
Продолжительность: 1 ч. 52 м. 51 с.
Перевод: Профессиональный двухголосый
Субтитры: Английские

Режиссер: С.В.Кришна Редди

Джонатан Беннетт, Джэми-Линн Сиглер, Надя Бьорлин, Аманда Лейтон, Эллиот Галд, Андреа Боуен, Лейни Казан, Пол Сорвино,

Майк встречает бывшую подружку, и былые чувства вспыхивают вновь. Вот только он женат, и его брачный контракт сулит ему немалые неприятности...

Качество: WEB-DLRip 720p
Формат: MKV
Видео кодек: H.264
Аудио кодек: AC3
Видео: 3000 kb/s, 1280x538, AVC
Аудио#1: Русский, AC3, 192 kb/s (2 ch)
Аудио#2: Английский, AC3, 384 kb/s (6 ch)





Общее
Кол-во : 284
Кол-во потоков такого типа : 1
Тип потока : General
Тип потока : Общее
Идентификатор типа потока : 0
Уникальный идентификатор : 241847218101964551471513417249526386389
Уникальный идентификатор : 241847218101964551471513417249526386389 (0xB5F214765A84B885AA23042A1AF00ED5)
Кол-во видеопотоков : 1
Кол-во аудиопотоков : 2
Кол-во текстовых потоков : 1
Кол-во потоков меню : 1
Video_Format_List : AVC
Video_Format_WithHint_List : AVC
Видеокодеки : AVC
Video_Language_List : English
Audio_Format_List : AC-3 / AC-3
Audio_Format_WithHint_List : AC-3 / AC-3
Аудиокодеки : AC3 / AC3
Audio_Language_List : Russian / English
Text_Format_List : UTF-8
Text_Format_WithHint_List : UTF-8
Текстовые кодеки : UTF-8
Text_Language_List : English
Полное имя : H:ТОРРЕНТЫРазвод.mkv
Имя папки : H:ТОРРЕНТЫ
Имя файла : Развод
Расширение : mkv
Формат : Matroska
Формат : Matroska
Формат/Ссылка : http://packs.matroska.org/
Формат/Используется в : mkv mk3d mka mks
Коммерческое название : Matroska
Версия формата : Version 4 / Version 2
Кодек : Matroska
Кодек : Matroska
Кодек/Ссылка : http://packs.matroska.org/
Кодек/Используется в : mkv mk3d mka mks
Размер файла : 3013399394
Размер файла : 2,81 Гбайт
Размер файла : 3 Гбайт
Размер файла : 2,8 Гбайт
Размер файла : 2,81 Гбайт
Размер файла : 2,806 Гбайт
Продолжительность : 6771392
Продолжительность : 1 ч. 52 м.
Продолжительность : 1 ч. 52 м. 51 с. 392 мс.
Продолжительность : 1 ч. 52 м.
Продолжительность : 01:52:51.392
Общий поток : 3560154
Общий поток : 3560 Кбит/сек
Размер потока : 59964660
Размер потока : 57,2 Мбайт (2%)
Размер потока : 57 Мбайт
Размер потока : 57 Мбайт
Размер потока : 57,2 Мбайт
Размер потока : 57,19 Мбайт
Размер потока : 57,2 Мбайт (2%)
Пропорции потока : 0.01990
Дата кодирования : UTC 2013-10-19 21:44:45
Дата файла : UTC 2013-10-20 01:52:39.744
Дата файла (местная) : 2013-10-20 08:52:39.744
Дата изменения файла : UTC 2013-10-20 02:18:27.469
Дата изменения файла (местная) : 2013-10-20 09:18:27.469
Программа кодирования : mkvmerge v6.1.0 ('Old Devil') built on Mar 4 2013 09:10:42
Библиотека кодирования : libebml v1.3.0 + libmatroska v1.4.0
Библиотека кодирования : libebml v1.3.0 + libmatroska v1.4.0

Видео
Кол-во : 263
Кол-во потоков такого типа : 1
Тип потока : Video
Тип потока : Видео
Идентификатор типа потока : 0
StreamOrder : 0
Идентификатор : 1
Идентификатор : 1
Уникальный идентификатор : 1
Формат : AVC
Формат/Информация : Advanced Video Codec
Формат/Ссылка : http://developers.videolan.org/x264.html
Коммерческое название : AVC
Профиль формата : High@L4.1
Настройки формата : CABAC / 5 Ref Frames
Параметр CABAC формата : Yes
Параметр CABAC формата : Да
Параметр ReFrames формата : 5
Параметр ReFrames формата : 5 кадров
Интернет-тип носителя : video/H264
Идентификатор кодека : V_MPEG4/ISO/AVC
Идентификатор кодека/Ссылка : http://ffdshow-tryout.sourceforge.net/
Кодек : V_MPEG4/ISO/AVC
Кодек : AVC
Кодек/Семейство : AVC
Кодек/Информация : Advanced Video Codec
Кодек/Ссылка : http://ffdshow-tryout.sourceforge.net/
Профиль кодека : High@L4.1
Настройки кодека : CABAC / 5 Ref Frames
Параметр CABAC кодека : Yes
Codec_Settings_RefFrames : 5
Продолжительность : 6771396
Продолжительность : 1 ч. 52 м.
Продолжительность : 1 ч. 52 м. 51 с. 396 мс.
Продолжительность : 1 ч. 52 м.
Продолжительность : 01:52:51.396
Битрейт : 3000000
Битрейт : 3000 Кбит/сек
Ширина : 1280
Ширина : 1280 пикселей
Высота : 538
Высота : 538 пикселей
Пропорции пикселя : 1.000
Соотношение сторон : 2.379
Соотношение сторон : 2,40:1
Режим частоты кадров : CFR
Режим частоты кадров : Постоянный
Частота кадров : 23.976
Частота кадров : 23,976 кадра/сек
Счётчик кадров : 162351
Разрешение : 8
Разрешение : 8 бит
Колориметрия : 4:2:0
Цветовое пространство : YUV
Субдискретизация насыщенности : 4:2:0
Битовая глубина : 8
Битовая глубина : 8 бит
Тип развёртки : Progressive
Тип развёртки : Прогрессивная
Переплетение : PPF
Переплетение : Прогрессивная
Бит/(Пиксели*Кадры) : 0.182
Задержка : 0
Задержка : 00:00:00.000
Задержка в оригинале : Container
Задержка в оригинале : Контейнер
Размер потока : 2465894510
Размер потока : 2,30 Гбайт (82%)
Размер потока : 2 Гбайт
Размер потока : 2,3 Гбайт
Размер потока : 2,30 Гбайт
Размер потока : 2,297 Гбайт
Размер потока : 2,30 Гбайт (82%)
Пропорции потока : 0.81831
Библиотека кодирования : x264 - core 130 r2273 b3065e6
Библиотека кодирования : x264 core 130 r2273 b3065e6
Библиотека кодирования/Имя : x264
Библиотека кодирования/Version : core 130 r2273 b3065e6
Настройки программы : cabac=1 / ref=5 / deblock=1:0:0 / analyse=0x3:0x113 / me=umh / subme=7 / psy=1 / psy_rd=1.00:0.00 / mixed_ref=1 / me_range=16 / chroma_me=1 / trellis=1 / 8x8dct=1 / cqm=0 / deadzone=21,11 / fast_pskip=1 / chroma_qp_offset=-2 / threads=18 / lookahead_threads=3 / sliced_threads=0 / nr=0 / decimate=1 / interlaced=0 / bluray_compat=0 / constrained_intra=0 / bframes=3 / b_pyramid=2 / b_adapt=1 / b_bias=0 / direct=3 / weightb=1 / open_gop=0 / weightp=2 / keyint=240 / keyint_min=23 / scenecut=40 / intra_refresh=0 / rc_lookahead=50 / rc=abr / mbtree=1 / bitrate=3000 / ratetol=1.0 / qcomp=0.60 / qpmin=0 / qpmax=69 / qpstep=4 / ip_ratio=1.40 / aq=1:1.00
Язык : en
Язык : English
Язык : English
Язык : en
Язык : eng
Язык : en
Default : Yes
Default : Да
Forced : No
Forced : Нет

Аудио #1
Кол-во : 244
Кол-во потоков такого типа : 2
Тип потока : Audio
Тип потока : Аудио
Идентификатор типа потока : 0
Позиция идентификатора типа потока : 1
StreamOrder : 1
Идентификатор : 2
Идентификатор : 2
Уникальный идентификатор : 9219236205908635292
Формат : AC-3
Формат/Информация : Audio Coding 3
Коммерческое название : AC-3
Расширение режима : CM (complete main)
Параметр Endianness формата : Big
Идентификатор кодека : A_AC3
Кодек : AC3
Кодек : AC3
Кодек/Семейство : AC3
Кодек/Информация : Dolby AC3
Продолжительность : 6771392
Продолжительность : 1 ч. 52 м.
Продолжительность : 1 ч. 52 м. 51 с. 392 мс.
Продолжительность : 1 ч. 52 м.
Продолжительность : 01:52:51.392
Вид битрейта : CBR
Вид битрейта : Постоянный
Битрейт : 192000
Битрейт : 192 Кбит/сек
Каналы : 2
Каналы : 2 канала
Расположение каналов : Front: L R
Расположение каналов : 2/0/0
Частота : 48000
Частота : 48,0 КГц
Количество образцов : 325026816
Разрешение : 16
Разрешение : 16 бит
Битовая глубина : 16
Битовая глубина : 16 бит
Метод сжатия : Lossy
Метод сжатия : С потерями
Задержка : 0
Задержка : 00:00:00.000
Задержка в оригинале : Container
Задержка в оригинале : Контейнер
Задержка видео : 0
Задержка видео : 0
Размер потока : 162513408
Размер потока : 155 Мбайт (5%)
Размер потока : 155 Мбайт
Размер потока : 155 Мбайт
Размер потока : 155 Мбайт
Размер потока : 155,0 Мбайт
Размер потока : 155 Мбайт (5%)
Пропорции потока : 0.05393
Язык : ru
Язык : Russian
Язык : Russian
Язык : ru
Язык : rus
Язык : ru
Default : Yes
Default : Да
Forced : No
Forced : Нет
bsid : 8
dialnorm : -27
dialnorm/String : -27 dB
compr : -0.28
compr/String : -0.28 dB
dsurmod : 0
acmod : 2
lfeon : 0
dialnorm_Average : -27
dialnorm_Average/String : -27 dB
dialnorm_Minimum : -27
dialnorm_Minimum/String : -27 dB
dialnorm_Maximum : -27
dialnorm_Maximum/String : -27 dB
dialnorm_Count : 2
compr_Average : -0.28
compr_Average/String : -0.28 dB
compr_Minimum : -0.28
compr_Minimum/String : -0.28 dB
compr_Maximum : -0.28
compr_Maximum/String : -0.28 dB
compr_Count : 2

Аудио #2
Кол-во : 243
Кол-во потоков такого типа : 2
Тип потока : Audio
Тип потока : Аудио
Идентификатор типа потока : 1
Позиция идентификатора типа потока : 2
StreamOrder : 2
Идентификатор : 3
Идентификатор : 3
Уникальный идентификатор : 17580297141495267512
Формат : AC-3
Формат/Информация : Audio Coding 3
Коммерческое название : AC-3
Расширение режима : CM (complete main)
Параметр Endianness формата : Big
Идентификатор кодека : A_AC3
Кодек : AC3
Кодек : AC3
Кодек/Семейство : AC3
Кодек/Информация : Dolby AC3
Продолжительность : 6771392
Продолжительность : 1 ч. 52 м.
Продолжительность : 1 ч. 52 м. 51 с. 392 мс.
Продолжительность : 1 ч. 52 м.
Продолжительность : 01:52:51.392
Вид битрейта : CBR
Вид битрейта : Постоянный
Битрейт : 384000
Битрейт : 384 Кбит/сек
Каналы : 6
Каналы : 6 каналов
Расположение каналов : Front: L C R, Side: L R, LFE
Расположение каналов : 3/2/0.1
Частота : 48000
Частота : 48,0 КГц
Количество образцов : 325026816
Разрешение : 16
Разрешение : 16 бит
Битовая глубина : 16
Битовая глубина : 16 бит
Метод сжатия : Lossy
Метод сжатия : С потерями
Задержка : 0
Задержка : 00:00:00.000
Задержка в оригинале : Container
Задержка в оригинале : Контейнер
Задержка видео : 0
Задержка видео : 0
Размер потока : 325026816
Размер потока : 310 Мбайт (11%)
Размер потока : 310 Мбайт
Размер потока : 310 Мбайт
Размер потока : 310 Мбайт
Размер потока : 310,0 Мбайт
Размер потока : 310 Мбайт (11%)
Пропорции потока : 0.10786
Язык : en
Язык : English
Язык : English
Язык : en
Язык : eng
Язык : en
Default : No
Default : Нет
Forced : No
Forced : Нет
bsid : 8
dialnorm : -27
dialnorm/String : -27 dB
compr : -0.28
compr/String : -0.28 dB
acmod : 7
lfeon : 1
dialnorm_Average : -27
dialnorm_Average/String : -27 dB
dialnorm_Minimum : -27
dialnorm_Minimum/String : -27 dB
dialnorm_Maximum : -27
dialnorm_Maximum/String : -27 dB
dialnorm_Count : 2
compr_Average : -0.28
compr_Average/String : -0.28 dB
compr_Minimum : -0.28
compr_Minimum/String : -0.28 dB
compr_Maximum : -0.28
compr_Maximum/String : -0.28 dB
compr_Count : 2

Текст
Кол-во : 195
Кол-во потоков такого типа : 1
Тип потока : Text
Тип потока : Текст
Идентификатор типа потока : 0
StreamOrder : 3
Идентификатор : 4
Идентификатор : 4
Уникальный идентификатор : 14634443952638383750
Формат : UTF-8
Коммерческое название : UTF-8
Идентификатор кодека : S_TEXT/UTF8
Идентификатор кодека/Информация : UTF-8 Plain Text
Кодек : S_TEXT/UTF8
Кодек : UTF-8
Кодек/Информация : UTF-8 Plain Text
Язык : en
Язык : English
Язык : English
Язык : en
Язык : eng
Язык : en
Default : No
Default : Нет
Forced : No
Forced : Нет

Меню
Кол-во : 88
Кол-во потоков такого типа : 1
Тип потока : Menu
Тип потока : Меню
Идентификатор типа потока : 0
Chapters_Pos_Begin : 75
Chapters_Pos_End : 88
00:00:00.000 : en:Chapter 1
00:12:28.000 : en:Chapter 2
00:20:53.000 : en:Chapter 3
00:28:47.000 : en:Chapter 4
00:35:44.000 : en:Chapter 5
00:41:30.000 : en:Chapter 6
00:51:09.000 : en:Chapter 7
01:01:44.000 : en:Chapter 8
01:13:54.000 : en:Chapter 9
01:22:32.000 : en:Chapter 10
01:33:08.000 : en:Chapter 11
01:41:10.000 : en:Chapter 12
01:49:44.000 : en:Chapter 13



pb.wtf



Скачать Приглашение на развод через торрент http://s018.radikal.ru/i516/1310/6d/0f3b801afb36.jpg Скачать фильм Приглашение на развод через торрент бесплантно в хорошем качестве Год выпуска: 2012Страна: СШАЖанр: мелодрама, комедия,Продолжительность: 1 ч. 52 м. 51 с.Перевод: Профессиональный двухголосыйСубтитры: ... 10 10 4
Info! Золотая раздача, скачанное не засчитывается.
Торрент: Зарегистрирован [2013-10-20 03:03] · скачан: 109 раз
Статус: √ проверено
Размер: 2.81 GB
Как cкачать? Как скачать Приглашение на развод через торрент | qTorrent

28-11-2019 20:33  

Отключить всю рекламу на сайте

    Дорогой пользователь! Огромная просьба, поблагодарите релизера, оцените раздачу и оставьте свои комментарий, если Вы скачали Приглашение на развод через торрент бесплатно! Внесите свою лепту в развитие PiratBit!
    Комментировать посты могут только пользователи прошедшие не сложную регистрацию
    Показать сообщения:    

    Приглашение на развод через торрент
    Скачать бесплатно Приглашение на развод
    Приглашение на развод скачать торрент
    Приглашение на развод смотреть онлайн
    Cкачать фильм Приглашение на развод бесплатно
    Приглашение на развод скачать торрент в хорошем качестве
    Приглашение на развод смотреть онлайн бесплатно в хорошем качестве


    Вы не можете начинать темы
    Вы не можете отвечать на сообщения
    Вы не можете редактировать свои сообщения
    Вы не можете удалять свои сообщения
    Вы не можете голосовать в опросах
    Вы не можете прикреплять файлы к сообщениям
    Вы можете скачивать файлы