2 сезон

iTunes

MVO

1

2 сезон

iTunes

iTunes

1 сезон

RePack

30

Новинка

ВАЖНО

ИГРА 18+

pack

RePack

MK11
pack

Легкие деньги

RePack

jed

RePack

fifa19

RePack

RDR2

RePack

NEED FOR SPEED™ PAYBACK

4 сезон

9 сезон

Бесстыжие 9 сезон

Все сериалы

все сериалы на PB.wtf

RePack

FAR CRY 5

Anonymous, доброй ночи, мы не успеваем собрать деньги на оплату серверов за декабрь и январь, помогите нам пожалуйста в это трудное время. В качестве благодарности мы отключим Вам всю рекламу на сайте (укажите свой ник в строку Ваше имя)!

×
  
Magnet ссылка

Голубая лагуна / Blue Lagoon: The Awakening (Джейк Ньюсом / Jake Newsome, Микаэл Саломон / Mikael Salomon) [2012, мелодрама, драма, приключения WEB-DLRip-AVC] MVO + Original (eng) + Sub (eng) pb.wtf

Голубая лагуна через торрент pb.wtf

Раздают: 1 [ 20 KB/s ]
Размер: 1.45 GB | Добавлен: 7 лет 2 мес. назад | Торрент скачан:561 раз
Скачать  

20-10-2013 10:13 Голубая лагуна Скачать торрент  

Голубая лагуна
Blue Lagoon: The Awakening




Страна: США
Студия: PeaceOut Productions, Silver Screen Pictures, Sony Pictures Television
Жанр: мелодрама, драма, приключения
Год выпуска: 2012
Продолжительность: 01:28:56

Перевод: Профессиональный (многоголосый, закадровый)
Cубтитры: Английские

Режиссер:
Джейк Ньюсом / Jake Newsome, Микаэл Саломон / Mikael Salomon

В ролях:
Индиана Эванс, Брентон Туэйтес, Дениз Ричардс, Фрэнк Джон Хьюз, Патрик Ст. Эсприт, Аликс Гиттер, Хейли Кийоко, Айми Кареро, Джейкоб Артист

Описание:
В фокусе сюжетной линии двое подростков Эмма и Дин, которые оказались на необитаемом острове в Карибском море. Во время морской прогулки Эмма упала за борт корабля, и только Дин увидел это и прыгнул за ней в море. Проходят недели и молодые люди влюбляются, узнают многое о друг друге, а также познают себя.


Релиз:

Автор рипа: S.T.A.L.K.E.R.2 (aka Stalker oK)

Сэмпл: multi-up

Качество видео: WEB-DLRip-AVC [WEB-DL 720p]
Формат видео: MKV
Видео кодек: AVC
Аудио кодек: AC3
Видео: 1761 Кбит/сек, 984*552 (16:9), в 23,976 кадр/сек, AVC
Аудио #1: Russian, 192 Кбит/сек, 48,0 КГц, 16 бит, 2 канала(ов), AC-3
Аудио #2: English, 384 Кбит/сек, 48,0 КГц, 16 бит, 6 канала(ов), AC-3

Общее
Уникальный идентификатор : 197218951042338399714169530302617743000 (0x945EFD03EF9B0DA685E60E24B479EE98)
Полное имя : H:Голубая лагунаGolubaja_laguna_2012_WEB_DLRip_AVC_MVO__stalkerok_Youtracker.mkv
Формат : Matroska
Размер файла : 1,45 Гбайт
Продолжительность : 1 ч. 28 м.
Общий поток : 2339 Кбит/сек
Название фильма : Blue Lagoon: The Awakening 2012 (Youtracker) (Rip by Stalker oK)
Дата кодирования : UTC 2013-10-20 09:47:34
Программа кодирования : mkvmerge v6.2.0 ('Promised Land') built on Apr 28 2013 12:22:01
Библиотека кодирования : libebml v1.3.0 + libmatroska v1.4.0

Видео
Идентификатор : 1
Формат : AVC
Формат/Информация : Advanced Video Codec
Профиль формата : High@L4.1
Параметр CABAC формата : Да
Параметр ReFrames формата : 12 кадры
Идентификатор кодека : V_MPEG4/ISO/AVC
Продолжительность : 1 ч. 28 м.
Битрейт : 1761 Кбит/сек
Ширина : 984 пикс.
Высота : 552 пикс.
Соотношение сторон : 16:9
Частота кадров : 23,976 кадр/сек
Цветовое пространство : YUV
Подвыборка цветности : 4:2:0
Битовая глубина : 8 бит
Тип развёртки : Прогрессивная
Бит/(Пиксели*Кадры) : 0.135
Размер потока : 1,07 Гбайт (73%)
Библиотека кодирования : x264 core 130 r2273 b3065e6
Настройки программы : cabac=1 / ref=12 / deblock=1:-3:-2 / analyse=0x3:0x133 / me=umh / subme=10 / psy=1 / psy_rd=1.05:0.15 / mixed_ref=1 / me_range=32 / chroma_me=1 / trellis=2 / 8x8dct=1 / cqm=0 / deadzone=21,11 / fast_pskip=0 / chroma_qp_offset=-3 / threads=4 / lookahead_threads=1 / sliced_threads=0 / nr=0 / decimate=0 / interlaced=0 / bluray_compat=0 / constrained_intra=0 / bframes=12 / b_pyramid=2 / b_adapt=2 / b_bias=0 / direct=3 / weightb=1 / open_gop=0 / weightp=2 / keyint=240 / keyint_min=23 / scenecut=40 / intra_refresh=0 / rc_lookahead=80 / rc=2pass / mbtree=0 / bitrate=1761 / ratetol=2.0 / qcomp=0.70 / qpmin=0 / qpmax=69 / qpstep=4 / cplxblur=20.0 / qblur=0.5 / vbv_maxrate=25000 / vbv_bufsize=30000 / nal_hrd=none / ip_ratio=1.40 / pb_ratio=1.30 / aq=2:1.00

Аудио #1
Идентификатор : 2
Формат : AC-3
Формат/Информация : Audio Coding 3
Расширение режима : CM (complete main)
Идентификатор кодека : A_AC3
Продолжительность : 1 ч. 28 м.
Вид битрейта : Постоянный
Битрейт : 192 Кбит/сек
Канал(ы) : 2 канала(ов)
Расположение каналов : Front: L R
Частота : 48,0 КГц
Битовая глубина : 16 бит
Метод сжатия : С потерями
Размер потока : 122 Мбайт (8%)
Язык : Russian

Аудио #2
Идентификатор : 3
Формат : AC-3
Формат/Информация : Audio Coding 3
Расширение режима : CM (complete main)
Идентификатор кодека : A_AC3
Продолжительность : 1 ч. 28 м.
Вид битрейта : Постоянный
Битрейт : 384 Кбит/сек
Канал(ы) : 6 канала(ов)
Расположение каналов : Front: L C R, Side: L R, LFE
Частота : 48,0 КГц
Битовая глубина : 16 бит
Метод сжатия : С потерями
Размер потока : 244 Мбайт (16%)
Язык : English

Текст
Идентификатор : 4
Формат : UTF-8
Идентификатор кодека : S_TEXT/UTF8
Идентификатор кодека/Информация : UTF-8 Plain Text
Язык : English

Меню
00:00:00.000 : en:Chapter 1
00:05:58.000 : en:Chapter 2
00:13:04.000 : en:Chapter 3
00:18:23.000 : en:Chapter 4
00:23:12.000 : en:Chapter 5
00:28:18.000 : en:Chapter 6
00:31:45.000 : en:Chapter 7
00:37:20.000 : en:Chapter 8
00:44:03.000 : en:Chapter 9
00:47:14.000 : en:Chapter 10
00:50:45.000 : en:Chapter 11
01:00:38.000 : en:Chapter 12
01:03:32.000 : en:Chapter 13
01:09:29.000 : en:Chapter 14
01:14:22.000 : en:Chapter 15
01:20:54.000 : en:Chapter 16

pb.wtf



Скачать Голубая лагуна через торрент http://i58.fastpic.ru/big/2013/0922/56/a6ca5f819a5431dd953204d78a61b056.png Скачать фильм Голубая лагуна через торрент бесплантно в хорошем качестве Описание:В фокусе сюжетной линии двое подростков Эмма и Дин, которые оказались на необитаемом острове в Карибском море. Во время морской ... 9.4 10 18
Info! Золотая раздача, скачанное не засчитывается.
Торрент: Зарегистрирован [2013-10-20 10:13] · скачан: 561 раз
Статус: √ проверено
Размер: 1.45 GB
Как cкачать? Как скачать Голубая лагуна через торрент | UTorrent

% Раздел Тема Автор DL S | L
Фильмы 2013 [DVDrip, WEB-DLRip, HDrip] [ 749 MB ] Голубая лагуна / Blue Lagoon: The Awakening [2012 WEB-DLRip-AVC] MVO + Sub sokol_ok Скачать
2 | 0
T Фильмы 2012 [ 1.37 GB ] Голубая лагуна / Blue Lagoon: The Awakening [2012 Мело HDTVRip] |Любительское | Mr. Freeman Скачать
1 | 0

28-11-2019 20:33  

Отключить всю рекламу на сайте

    Дорогой пользователь! Огромная просьба, поблагодарите релизера, оцените раздачу и оставьте свои комментарий, если Вы скачали Голубая лагуна через торрент бесплатно! Внесите свою лепту в развитие PiratBit!
    Комментировать посты могут только пользователи прошедшие не сложную регистрацию
    Показать сообщения:    

    Голубая лагуна через торрент
    Скачать бесплатно Голубая лагуна
    Голубая лагуна скачать торрент
    Голубая лагуна смотреть онлайн
    Cкачать фильм Голубая лагуна бесплатно
    Голубая лагуна скачать торрент в хорошем качестве
    Голубая лагуна смотреть онлайн бесплатно в хорошем качестве


    Вы не можете начинать темы
    Вы не можете отвечать на сообщения
    Вы не можете редактировать свои сообщения
    Вы не можете удалять свои сообщения
    Вы не можете голосовать в опросах
    Вы не можете прикреплять файлы к сообщениям
    Вы можете скачивать файлы