2 сезон

iTunes

MVO

1

2 сезон

iTunes

iTunes

1 сезон

RePack

30

Ultimate

ВАЖНО

ИГРА 18+

pack

RePack

MK11
pack

Легкие деньги

RePack

jed

RePack

fifa19

RePack

RDR2

RePack

NEED FOR SPEED™ PAYBACK

4 сезон

9 сезон

Бесстыжие 9 сезон

Все сериалы

все сериалы на PB.wtf

RePack

FAR CRY 5

Anonymous, доброе утро, мы не успеваем собрать деньги на оплату серверов за декабрь и январь, помогите нам пожалуйста в это трудное время. В качестве благодарности мы отключим Вам всю рекламу на сайте (укажите свой ник в строку Ваше имя)!

×
  
Magnet ссылка

Мэрайа Мунди и шкатулка Мидаса / The Adventurer: The Curse of the Midas Box (Джонатан Ньюман) [2013, фэнтези, приключения, семейный, DVDRip,MVO] pb.wtf

Мэрайа Мунди и шкатулка Мидаса через торрент pb.wtf

Размер: 1.37 GB | Добавлен: 7 лет 3 мес. назад | Торрент скачан:1288 раз
Скачать  

20-10-2013 10:33 Мэрайа Мунди и шкатулка Мидаса Скачать торрент  

Мэрайа Мунди и шкатулка Мидаса / The Adventurer: The Curse of the Midas Box«The new name for adventure»

Год выпуска: 2013
Страна: Великобритания
Жанр: фэнтези, приключения, семейный
Продолжительность: 01:34:35
Перевод: Профессиональный (многоголосый закадровый)

Режиссер: Джонатан Ньюман
Сценарий: Кристиан Тейлор, Мэттью Хаффман, Г.П. Тейлор
Продюсер: Питер Беван, Ибон Корменсана, Игнаси Эстапе, ...


Бюджет: $25 000 000
Релиз на DVD: 22 октября 2013, «Парадиз / Активижен», ...
Рейтинг MPAA: Рекомендуется присутствие родителей

В ролях: Майкл Шин / Michael Sheen (Charity), Лина Хиди / Lena Headey (Monica), Сэм Нил / Sam Neill (Otto Luger), Йоан Гриффит / Ioan Gruffudd (Charles Mundi), Анайрин Барнард / Aneurin Barnard (Mariah Mundi), Кили Хоуз / Keeley Hawes (Catherine Mundi), Тристан Геммилл / Tristan Gemmill (Isambard Black), Дэниэл Вильде / Daniel Wilde (Cleavy)


Описание: Мир семнадцатилетнего Мэрайа Мунди меняется, когда его родители внезапно исчезают, оставив юношу и его брата Феликса на произвол судьбы.



Качество: DVDRip
Формат: AVI
Видео кодек: XviD
Аудио кодеk: AC3
Видео: 720x400 (16:9), 25.000 fps, XviD, 1 675 Kbps
Аудио: Аудио #1: AC3, 384 Kbps, 48.0 KHz, 6 ch

Код:

General
Complete name                    : Meraja.Mundi.i.shkatulka.Medasa.2013.P.DVDRip.1400MB.avi
Format                           : AVI
Format/Info                      : Audio Video Interleave
File size                        : 1.37 GiB
Duration                         : 1h 34mn
Overall bit rate                 : 2 068 Kbps
Writing application              : VirtualDubMod 1.5.10.2 (build 2540/release)
Writing library                  : VirtualDubMod build 2540/release

Video
ID                               : 0
Format                           : MPEG-4 Visual
Format profile                   : Advanced Simple@L5
Format settings, BVOP            : Yes
Format settings, QPel            : No
Format settings, GMC             : No warppoints
Format settings, Matrix          : Custom
Codec ID                         : XVID
Codec ID/Hint                    : XviD
Duration                         : 1h 34mn
Bit rate                         : 1 675 Kbps
Width                            : 720 pixels
Height                           : 400 pixels
Display aspect ratio             : 16:9
Frame rate                       : 25.000 fps
Color space                      : YUV
Chroma subsampling               : 4:2:0
Bit depth                        : 8 bits
Scan type                        : Progressive
Bits/(Pixel*Frame)               : 0.233
Stream size                      : 1.11 GiB (81%)
Writing library                  : XviD 1.2.1 (UTC 2008-12-04)

Audio
ID                               : 1
Format                           : AC-3
Format/Info                      : Audio Coding 3
Mode extension                   : CM (complete main)
Codec ID                         : 2000
Duration                         : 1h 34mn
Bit rate mode                    : Constant
Bit rate                         : 384 Kbps
Channel(s)                       : 6 channels
Channel positions                : Front: L C R, Side: L R, LFE
Sampling rate                    : 48.0 KHz
Bit depth                        : 16 bits
Stream size                      : 260 MiB (19%)
Alignment                        : Split accross interleaves
Interleave, duration             : 40 ms (1.00 video frame)
Interleave, preload duration     : 500 ms

pb.wtf



Скачать Мэрайа Мунди и шкатулка Мидаса через торрент http://i57.fastpic.ru/big/2013/1020/fe/7efe231d884bb4d5de11d458a61a11fe.jpg Скачать фильм Мэрайа Мунди и шкатулка Мидаса через торрент бесплантно в хорошем качестве Описание: Мир семнадцатилетнего Мэрайа Мунди меняется, когда его родители внезапно исчезают, оставив юношу и его брата Феликса на произвол ... 9.9 10 38
Info! Золотая раздача, скачанное не засчитывается.
Торрент: Зарегистрирован [2013-10-20 10:33] · скачан: 1 288 раз
Статус: √ проверено
Размер: 1.37 GB
Как cкачать? Как скачать Мэрайа Мунди и шкатулка Мидаса через торрент | UTorrent

% Раздел Тема Автор DL S | L
Фильмы 2013 [DVDrip, WEB-DLRip, HDrip] [ 2.18 GB ] Мэрайа Мунди и шкатулка Мидаса / The Adventurer: The Curse of the Midas Box [2012 BDRip-AVC] MVO [] potroks Скачать
1 | 0
Фильмы 2012 [ 1.45 GB ] Мэрайа Мунди и шкатулка Мидаса / The Adventurer: The Curse of the Midas Box [2012 Испания HDRip-AVC MVO [лицензия] Ворон Скачать
2 | 0
Фильмы [HD 720p, 1080p] (Хороший звук DUB, MVO) [ 9.12 GB ] Мэрайа Мунди и шкатулка Мидаса / The Adventurer: The Curse of the Midas Box [2012 Испания BDRip 1080p Ворон Скачать
1 | 0
Фильмы 2013 [DVDrip, WEB-DLRip, HDrip] [ 1.45 GB ] Мэрайа Мунди и шкатулка Мидаса / The Adventurer: The Curse of the Midas Box [2013 WEB-DLRip MVO][] Anonymous Скачать
1 | 0
Фильмы (DVD фильмы) [ 4.17 GB ] Мэрайа Мунди и шкатулка Мидаса / The Adventurer: The Curse of the Midas Box [2013 DVD5] R5 voovaz Скачать
1 | 0

28-11-2019 20:33  

Отключить всю рекламу на сайте

20-10-2013 10:46 Мэрайа Мунди и шкатулка Мидаса Скачать торрент  

Дайте скорости pb.wtf



20-10-2013 10:57 Мэрайа Мунди и шкатулка Мидаса Скачать торрент  

подключи себе нормальный инет. со своим "Дайте скорости!"pb.wtf



  маты не допустимы, выдал DEVI

20-10-2013 13:01 Мэрайа Мунди и шкатулка Мидаса Скачать торрент  

Life79 писал(а):

Дайте скорости

не ну правда,как мы её сами тормозим все 117 человек, на данный момент скачавших? я в билайне подключил тариф двойная выгода-40 и 80 м.б в секунду. подключяй и БУДЕТ ТЕБЕ СКОРОСТЬ!pb.wtf



20-10-2013 14:57 Мэрайа Мунди и шкатулка Мидаса Скачать торрент  

Darkkiller32 писал(а):

*** подключи себе нормальный инет. со своим "Дайте скорости!"

pb.wtf



20-10-2013 15:08 Мэрайа Мунди и шкатулка Мидаса Скачать торрент  

Darkkiller32 писал(а):

*** подключи себе нормальный инет. со своим "Дайте скорости!"

А если человек физически не может инет хороший провести ( может раздающих мало ) может у него временная проблема с нетом. Не хами pb.wtf



25-10-2013 10:44 Мэрайа Мунди и шкатулка Мидаса Скачать торрент  

Очередной фильм на тему "Кто-то там и волшебная табуретка?" Отпишитесь, плиз, как фильм.pb.wtf



    Дорогой пользователь! Огромная просьба, поблагодарите релизера, оцените раздачу и оставьте свои комментарий, если Вы скачали Мэрайа Мунди и шкатулка Мидаса через торрент бесплатно! Внесите свою лепту в развитие PiratBit!
    Комментировать посты могут только пользователи прошедшие не сложную регистрацию
    Показать сообщения:    

    Мэрайа Мунди и шкатулка Мидаса через торрент
    Скачать бесплатно Мэрайа Мунди и шкатулка Мидаса
    Мэрайа Мунди и шкатулка Мидаса скачать торрент
    Мэрайа Мунди и шкатулка Мидаса смотреть онлайн
    Cкачать фильм Мэрайа Мунди и шкатулка Мидаса бесплатно
    Мэрайа Мунди и шкатулка Мидаса скачать торрент в хорошем качестве
    Мэрайа Мунди и шкатулка Мидаса смотреть онлайн бесплатно в хорошем качестве


    Вы не можете начинать темы
    Вы не можете отвечать на сообщения
    Вы не можете редактировать свои сообщения
    Вы не можете удалять свои сообщения
    Вы не можете голосовать в опросах
    Вы не можете прикреплять файлы к сообщениям
    Вы можете скачивать файлы