Ссылка на приватное зеркало нашего сайта всего за 1$. Внимание количество ограничено!!!

2 сезон

iTunes

1 сезон

1

iTunes

iTunes

iTunes

1 сезон

RePack

30

ИГРА 18+

pack

ВАЖНО

!!Акция!!

Alien_RageХит недели

RePack

MK11
pack

Забери бонус

RePack

jed

!!Акция!!

Alien_Rage

RePack

fifa19

RePack

Assassins Creed: Odyssey

RePack

NEED FOR SPEED™ PAYBACK

4 сезон

9 сезон

Бесстыжие 9 сезон

Все сериалы

все сериалы на PB.wtf

RePack

FAR CRY 5
  

Мой лучший друг / Mon meilleur ami (Патрис Леконт) [2006 г., Комедия, BDRip 720p, Профессиональный многоголосый, Лицензия] pb.wtf

Мой лучший друг через торрент pb.wtf

Раздают: 1 [ 0 KB/s ]
Размер: 3.79 GB | Добавлен: 7 лет назад | Торрент скачан:200 раз
Скачать  

20-10-2013 11:00 Мой лучший друг Скачать торрент  

Мой лучший друг / Mon meilleur ami
Год выпуска: 2006
Страна: Франция
Жанр: Комедия,
Продолжительность: 01:34:42
Перевод: Профессиональный многоголосый, Лицензия

Режиссер: Патрис Леконт
Продюссер: Оливье Делбоск, Марк Миссонье, Эрик Йехельманн
Сценарий: Оливье Даза, Патрис Леконт, Жером Тоннер

Бюджет: $12 721 099
Премьера в мире: 12 сентября 2006

детям до 13 лет просмотр не желателен

http://www.kinopoisk.ru/film/256221/

В ролях: Даниель Отой, Дани Бун, Жюли Гайе, Жюли Дюран, Жак Мату, Мари Пийе, Элизабет Буржин, Анри Гарсен, Жак Списсер, Филипп дю Жанеран, Фабьен Чодат, Жан-Франсуа Копф, Ален Риму, Марк Фор, Эрик Фрей, Этьен Драбер, Эрик Наггар, Анн Лё Ни, Пьер Осседат, Одри Марней, Андре Даман, Изабель Спад, Ален Шоке, Жан-Люк Мимо, Мари Мерже, Сильви Эрбер, Омар Бехалед, Жан-Клод Боль-Редда, Патрис Борнан, Кристиан Газио, Розин Янг, Сирил Коутон, Никки Марбо, Ивон Мартин, Жюпю, Кэролайн Фрэнк, Эрик Грандин, Бриджитт Дефранс, Серж Фалю,

Описание: Франсуа — успешный антиквар, ведущий роскошный образ жизни. Он высокомерен, эгоцетричен и... одинок. Катрин, его бизнес-партнер, предлагает пари: если Франсуа сможет найти друзей, она уступит ему очень ценную греческую вазу. Теперь у Франсуа есть всего несколько дней, чтобы проштудировать свою записную книжку и представить Катрин своего лучшего друга.

Качество: BDRip 720p
Формат: MKV
Видео кодек: MPEG4
Аудио кодек: AC3
Видео: MPEG-4 AVC, 4726 Kбит/с, 1280x546
Аудио#1: Русский, AC3, 6 ch, 448 Кбит/с
Аудио#2: Французский,AC3, 6 ch, 448 Кбит/с
Общее
Уникальный идентификатор : 245361982643568047325279240930955529753 (0xB896FFBBC2ABF6468248EDC081AE8E19)
Полное имя : E:VideoMoj.luchshij.drug.2006.x264.BDRip.720p.mkv
Формат : Matroska
Версия формата : Version 4 / Version 2
Размер файла : 3,79 Гбайт
Продолжительность : 1 ч. 34 м.
Общий поток : 5736 Кбит/сек
Название фильма : Мой лучший друг / Mon meilleur ami / 2006 / BDRip -- STarankov
Дата кодирования : UTC 2013-10-20 03:04:04
Программа кодирования : mkvmerge v6.4.1 ('Omega Point') built on Sep 16 2013 22:05:10
Библиотека кодирования : libebml v1.3.0 + libmatroska v1.4.1

Видео
Идентификатор : 1
Формат : AVC
Формат/Информация : Advanced Video Codec
Профиль формата : High@L4.1
Параметр CABAC формата : Да
Параметр ReFrames формата : 11 кадров
Идентификатор кодека : V_MPEG4/ISO/AVC
Продолжительность : 1 ч. 34 м.
Битрейт : 4726 Кбит/сек
Ширина : 1280 пикселей
Высота : 546 пикселей
Соотношение сторон : 2,35:1
Режим частоты кадров : Постоянный
Частота кадров : 24,000 кадра/сек
Цветовое пространство : YUV
Субдискретизация насыщенности : 4:2:0
Битовая глубина : 8 бит
Тип развёртки : Прогрессивная
Бит/(Пиксели*Кадры) : 0.282
Размер потока : 3,13 Гбайт (82%)
Библиотека кодирования : x264 core 133 r2334 a3ac64b
Настройки программы : cabac=1 / ref=11 / deblock=1:-1:-1 / analyse=0x3:0x113 / me=umh / subme=10 / psy=1 / psy_rd=1.00:0.15 / mixed_ref=1 / me_range=24 / chroma_me=1 / trellis=2 / 8x8dct=1 / cqm=0 / deadzone=21,11 / fast_pskip=0 / chroma_qp_offset=-3 / threads=6 / lookahead_threads=1 / sliced_threads=0 / nr=0 / decimate=1 / interlaced=0 / bluray_compat=0 / constrained_intra=0 / bframes=8 / b_pyramid=2 / b_adapt=2 / b_bias=0 / direct=1 / weightb=1 / open_gop=0 / weightp=2 / keyint=230 / keyint_min=23 / scenecut=40 / intra_refresh=0 / rc_lookahead=40 / rc=crf / mbtree=0 / crf=20.0 / qcomp=0.60 / qpmin=0 / qpmax=69 / qpstep=4 / vbv_maxrate=50000 / vbv_bufsize=62500 / crf_max=0.0 / nal_hrd=none / ip_ratio=1.40 / pb_ratio=1.30 / aq=1:1.00
Язык : French
Default : Да
Forced : Нет

Аудио #1
Идентификатор : 2
Формат : AC-3
Формат/Информация : Audio Coding 3
Расширение режима : CM (complete main)
Параметр Endianness формата : Big
Идентификатор кодека : A_AC3
Продолжительность : 1 ч. 34 м.
Вид битрейта : Постоянный
Битрейт : 448 Кбит/сек
Каналы : 6 каналов
Расположение каналов : Front: L C R, Side: L R, LFE
Частота : 48,0 КГц
Битовая глубина : 16 бит
Метод сжатия : С потерями
Размер потока : 303 Мбайт (8%)
Заголовок : MVO
Язык : Russian
Default : Да
Forced : Нет

Аудио #2
Идентификатор : 3
Формат : AC-3
Формат/Информация : Audio Coding 3
Расширение режима : CM (complete main)
Параметр Endianness формата : Big
Идентификатор кодека : A_AC3
Продолжительность : 1 ч. 34 м.
Вид битрейта : Постоянный
Битрейт : 448 Кбит/сек
Каналы : 6 каналов
Расположение каналов : Front: L C R, Side: L R, LFE
Частота : 48,0 КГц
Битовая глубина : 16 бит
Метод сжатия : С потерями
Размер потока : 303 Мбайт (8%)
Заголовок : Original
Язык : French
Default : Нет
Forced : Нет

---[Information] [19.10.2013 12:02:59] avs [info]: 1280x546p 1:1 @ 24/1 fps (cfr)
---[Information] [19.10.2013 12:02:59] x264 [info]: using SAR=1/1
---[Information] [19.10.2013 12:02:59] x264 [info]: using cpu capabilities: MMX2 SSE2Fast SSSE3 SSE4.2
---[Information] [19.10.2013 12:02:59] x264 [info]: profile High, level 4.1
---[Information] [19.10.2013 23:10:19] x264 [info]: frame I:1018 Avg QP:19.70 size: 76666
---[Information] [19.10.2013 23:10:20] x264 [info]: frame P:24231 Avg QP:21.03 size: 44132
---[Information] [19.10.2013 23:10:20] x264 [info]: frame B:111118 Avg QP:22.91 size: 20597
---[Information] [19.10.2013 23:10:20] x264 [info]: consecutive B-frames: 1.1% 0.7% 2.6% 10.3% 11.5% 51.4% 7.1% 3.3% 11.9%
---[Information] [19.10.2013 23:10:20] x264 [info]: mb I I16..4: 8.1% 81.8% 10.0%
---[Information] [19.10.2013 23:10:20] x264 [info]: mb P I16..4: 1.5% 22.0% 1.4% P16..4: 33.6% 25.9% 11.1% 0.0% 0.0% skip: 4.5%
---[Information] [19.10.2013 23:10:20] x264 [info]: mb B I16..4: 0.2% 2.2% 0.1% B16..8: 46.0% 15.2% 3.9% direct: 9.6% skip:22.8% L0:47.1% L1:44.9% BI: 7.9%
---[Information] [19.10.2013 23:10:20] x264 [info]: 8x8 transform intra:87.7% inter:63.8%
---[Information] [19.10.2013 23:10:20] x264 [info]: coded y,uvDC,uvAC intra: 90.3% 73.3% 35.1% inter: 47.2% 26.2% 0.8%
---[Information] [19.10.2013 23:10:20] x264 [info]: i16 v,h,dc,p: 77% 9% 7% 8%
---[Information] [19.10.2013 23:10:20] x264 [info]: i8 v,h,dc,ddl,ddr,vr,hd,vl,hu: 13% 7% 12% 9% 12% 12% 11% 11% 12%
---[Information] [19.10.2013 23:10:20] x264 [info]: i4 v,h,dc,ddl,ddr,vr,hd,vl,hu: 37% 6% 4% 6% 10% 11% 9% 9% 8%
---[Information] [19.10.2013 23:10:20] x264 [info]: i8c dc,h,v,p: 37% 26% 22% 15%
---[Information] [19.10.2013 23:10:20] x264 [info]: Weighted P-Frames: Y:6.7% UV:1.8%
---[Information] [19.10.2013 23:10:20] x264 [info]: ref P L0: 36.7% 11.5% 19.5% 7.5% 6.9% 4.6% 4.5% 2.4% 2.4% 1.8% 2.0% 0.2% 0.0%
---[Information] [19.10.2013 23:10:20] x264 [info]: ref B L0: 60.4% 14.8% 8.4% 4.7% 3.6% 3.0% 2.4% 1.6% 0.8% 0.3%
---[Information] [19.10.2013 23:10:20] x264 [info]: ref B L1: 89.6% 10.4%
---[Information] [19.10.2013 23:10:20] x264 [info]: kb/s:4837.86
---[Information] [19.10.2013 23:10:20] encoded 136367 frames, 3.41 fps, 4837.86 kb/s
--[Information] [19.10.2013 23:10:27] Final statistics
---[Information] [19.10.2013 23:10:27] Constant Quality Mode: Quality 20 computed...
---[Information] [19.10.2013 23:10:27] Video Bitrate Obtained (approximate): 4839 kbit/s
--[Information] [19.10.2013 23:10:27] MediaInfo
---[Information] File: E:RipMoj.luchshij.drug.2006.x264.BDRipMoj.luchshij.drug.2006.x264.BDRip.720p.mkv


pb.wtf



Скачать Мой лучший друг через торрент http://pic.kartinco.top/images/4/jhwhi.jpg Скачать фильм Мой лучший друг через торрент бесплантно в хорошем качестве Описание: Франсуа — успешный антиквар, ведущий роскошный образ жизни. Он высокомерен, эгоцетричен и... одинок. Катрин, его бизнес-партнер, ... 10 10 4
Info! Золотая раздача, скачанное не засчитывается.
Торрент: Зарегистрирован [2013-10-20 11:00] · скачан: 200 раз
Статус: √ проверено
Размер: 3.79 GB
Как cкачать? Как скачать Мой лучший друг через торрент | qTorrent



Последний раз редактировалось: UnLow (2013-10-20 15:48), всего редактировалось 3 раз(а)

28-11-2019 20:33  

Отключить всю рекламу на сайте

20-10-2013 11:38 Мой лучший друг Скачать торрент  

    Дорогой пользователь! Огромная просьба, поблагодарите релизера, оцените раздачу и оставьте свои комментарий, если Вы скачали Мой лучший друг через торрент бесплатно! Внесите свою лепту в развитие PiratBit!
    Комментировать посты могут только пользователи прошедшие не сложную регистрацию
    Показать сообщения:    

    Мой лучший друг через торрент
    Скачать бесплатно Мой лучший друг
    Мой лучший друг скачать торрент
    Мой лучший друг смотреть онлайн
    Cкачать фильм Мой лучший друг бесплатно
    Мой лучший друг скачать торрент в хорошем качестве
    Мой лучший друг смотреть онлайн бесплатно в хорошем качестве


    Вы не можете начинать темы
    Вы не можете отвечать на сообщения
    Вы не можете редактировать свои сообщения
    Вы не можете удалять свои сообщения
    Вы не можете голосовать в опросах
    Вы не можете прикреплять файлы к сообщениям
    Вы можете скачивать файлы