2 сезон

iTunes

MVO

1

2 сезон

iTunes

iTunes

1 сезон

RePack

30

Новинка

ВАЖНО

ИГРА 18+

pack

RePack

MK11
pack

Легкие деньги

RePack

jed

RePack

fifa19

RePack

RDR2

RePack

NEED FOR SPEED™ PAYBACK

4 сезон

9 сезон

Бесстыжие 9 сезон

Все сериалы

все сериалы на PB.wtf

RePack

FAR CRY 5

Anonymous, доброе утро, мы не успеваем собрать деньги на оплату серверов за декабрь и январь, помогите нам пожалуйста в это трудное время. В качестве благодарности мы отключим Вам всю рекламу на сайте (укажите свой ник в строку Ваше имя)!

×
  
Magnet ссылка

Безумные преподы / Les profs (Пьер-Франсуа Мартен-Лаваль / Pierre-François Martin-Laval) [2013 г., Комедия, BDRip-AVC, Дубляж, Лицензия] pb.wtf

Безумные преподы через торрент pb.wtf

Размер: 2.14 GB | Добавлен: 7 лет 3 мес. назад | Торрент скачан:584 раза
Скачать  

20-10-2013 15:28 Безумные преподы Скачать торрент  

Безумные преподы / Les profs
Год выпуска: 2013
Страна: Франция / Canal+ [fr], Ciné, Les films du 24, TF1, TF1 Films Production...
Жанр: Комедия,
Продолжительность: 01:28:04
Перевод: Дубляж, Лицензия
Субтитры: Нет

Режиссер: Пьер-Франсуа Мартен-Лаваль / Pierre-François Martin-Laval



В ролях: Кристиан Клавье, Изабель Нанти, Пьер-Франсуа Мартен-Лаваль, Кев Адамс, Франсуа Морель, Арно Дюкре, Стефи Сельма, Рэймонд Бочар, Фред Туш, Филипп Дюкло,

Описание: Лицей имени Жюля Ферри — худший во Франции. Показатели успеваемости настолько низки, что школа на грани закрытия. Единственный шанс спасти учебное заведение — не провалить ЕГЭ, на что решительно настроены учащиеся старшего класса — редкие бездельники и раздолбаи. Чтобы избежать позора, директор вызывает подкрепление: десант сумасбродных преподов, которые оказываются не намного лучше своих учеников. В их числе брутальный качок Эрик (учитель физкультуры), отвязная толстуха с бензопилой Глэдис (учитель английского), фанатичный экспериментатор Альберт (учитель химии), сексапильная шоколадка Амина (учитель французского), безобидный отморозок в костюме Наполеона Полошон (учитель истории) и преподаватель неопознанного предмета, любитель покурить травку и поговорить о том о сем — пофигист Кутиро. Если лучшее решение — худший учитель, как они сдадут ЕГЭ?

Качество: BDRip-AVC
Формат: MKV
Видео кодек: H.264
Аудио кодек: AC3
Видео: 1040x442 (2,35:1), 24,000 fps, 2657 Кbps, 0.241 bit/pixel
Аудио#1: 48 kHz, AC3 Dolby Digital, 3/2 (L,C,R,l,r) + LFE ch, 384.00 kbps | RUS
Аудио#2: 48 kHz, AC3 Dolby Digital, 3/2 (L,C,R,l,r) + LFE ch, 448.00 kbps | FRE

Релиз группы:
Автор рипа: potroks





Общее
Уникальный идентификатор : 199051283358152265746482926562439280742 (0x95BFE1F9347EACBEB73AC92663D33866)
Полное имя : Bezumnyje.Prepody.2013.DUAL.BDRip.x264.-HELLYWOOD.mkv
Формат : Matroska
Версия формата : Version 4 / Version 2
Размер файла : 2,14 Гбайт
Продолжительность : 1 ч. 28 м.
Общий поток : 3472 Кбит/сек
Название фильма : HELLYWOOD - rip by potroks
Дата кодирования : UTC 2013-10-20 13:05:46
Программа кодирования : mkvmerge v5.9.0 ('On The Loose') built on Dec 15 2012 16:39:58
Библиотека кодирования : libebml v1.3.0 + libmatroska v1.4.0

Видео
Идентификатор : 1
Формат : AVC
Формат/Информация : Advanced Video Codec
Профиль формата : High@L4.1
Параметр CABAC формата : Да
Параметр ReFrames формата : 10 кадров
Идентификатор кодека : V_MPEG4/ISO/AVC
Продолжительность : 1 ч. 28 м.
Битрейт : 2657 Кбит/сек
Ширина : 1040 пикселей
Высота : 442 пикселя
Соотношение сторон : 2,35:1
Режим частоты кадров : Постоянный
Частота кадров : 24,000 кадра/сек
Цветовое пространство : YUV
Субдискретизация насыщенности : 4:2:0
Битовая глубина : 8 бит
Тип развёртки : Прогрессивная
Бит/(Пиксели*Кадры) : 0.241
Размер потока : 1,58 Гбайт (74%)
Заголовок : Les profs
Библиотека кодирования : x264 core 130 r2273 b3065e6
Настройки программы : cabac=1 / ref=10 / deblock=1:-2:-2 / analyse=0x3:0x133 / me=umh / subme=11 / psy=1 / psy_rd=1.06:0.03 / mixed_ref=1 / me_range=32 / chroma_me=1 / trellis=2 / 8x8dct=1 / cqm=0 / deadzone=21,11 / fast_pskip=0 / chroma_qp_offset=-3 / threads=12 / lookahead_threads=3 / sliced_threads=0 / nr=0 / decimate=0 / interlaced=0 / bluray_compat=0 / constrained_intra=0 / bframes=11 / b_pyramid=2 / b_adapt=2 / b_bias=0 / direct=3 / weightb=1 / open_gop=0 / weightp=2 / keyint=250 / keyint_min=23 / scenecut=40 / intra_refresh=0 / rc_lookahead=60 / rc=2pass / mbtree=0 / bitrate=2657 / ratetol=1.0 / qcomp=0.70 / qpmin=0 / qpmax=69 / qpstep=4 / cplxblur=20.0 / qblur=0.5 / vbv_maxrate=20000 / vbv_bufsize=20000 / nal_hrd=none / ip_ratio=1.35 / pb_ratio=1.25 / aq=1:0.70
Язык : French
Default : Да
Forced : Нет

Аудио #1
Идентификатор : 2
Формат : AC-3
Формат/Информация : Audio Coding 3
Расширение режима : CM (complete main)
Параметр Endianness формата : Big
Идентификатор кодека : A_AC3
Продолжительность : 1 ч. 28 м.
Вид битрейта : Постоянный
Битрейт : 384 Кбит/сек
Каналы : 6 каналов
Расположение каналов : Front: L C R, Side: L R, LFE
Частота : 48,0 КГц
Битовая глубина : 16 бит
Метод сжатия : С потерями
Размер потока : 242 Мбайт (11%)
Заголовок : Dub | DD 5.1 @ 384 kbps - R5
Язык : Russian
Default : Да
Forced : Да

Аудио #2
Идентификатор : 3
Формат : AC-3
Формат/Информация : Audio Coding 3
Расширение режима : CM (complete main)
Параметр Endianness формата : Big
Идентификатор кодека : A_AC3
Продолжительность : 1 ч. 28 м.
Вид битрейта : Постоянный
Битрейт : 448 Кбит/сек
Каналы : 6 каналов
Расположение каналов : Front: L C R, Side: L R, LFE
Частота : 48,0 КГц
Битовая глубина : 16 бит
Метод сжатия : С потерями
Размер потока : 282 Мбайт (13%)
Заголовок : Original | DD 5.1 @ 448 kbps
Язык : French
Default : Нет
Forced : Нет

Меню
00:00:00.000 : fr:
00:08:59.000 : fr:
00:17:13.416 : fr:
00:26:51.958 : fr:
00:33:20.708 : fr:
00:37:00.000 : fr:
00:41:35.458 : fr:
00:46:52.958 : fr:
00:54:42.333 : fr:
01:00:20.458 : fr:
01:07:30.791 : fr:
01:13:33.125 : fr:
01:28:03.958 : fr:

pb.wtf



Скачать Безумные преподы через торрент http://s018.radikal.ru/i513/1310/cd/a69b8c27d9a3.png Скачать фильм Безумные преподы через торрент бесплантно в хорошем качестве Описание: Лицей имени Жюля Ферри — худший во Франции. Показатели успеваемости настолько низки, что школа на грани закрытия. Единственный ... 9.2 10 21
Info! Золотая раздача, скачанное не засчитывается.
Торрент: Зарегистрирован [2013-10-20 15:28] · скачан: 584 раз
Статус: √ проверено
Размер: 2.14 GB
Как cкачать? Как скачать Безумные преподы через торрент | UTorrent

% Раздел Тема Автор DL S | L
T Релизы по Парсеру [Игры, Сериалы и Фильмы и другое...] [ 6.68 GB ] Безумные преподы: Миссия в Лондон / Les profs 2 [2015 BDRip 1080p Любительский двухголосый [Parovoz Production] Ворон Скачать
1 | 0
T Фильмы 2015 (Звук TS, Cam, VO, DVO) [ 1.37 GB ] Безумные преподы: Миссия в Лондон / Les profs 2 [2015 HDRip Любительский двухголосый [Parovoz Production] Ворон Скачать
1 | 0
Фильмы 2013 [DVDrip, WEB-DLRip, HDrip] [ 1.37 GB ] Безумные преподы / Les profs [2013 HDRip [лицензия R5 !] Ворон Скачать
1 | 0
Фильмы (Blu-ray, BD-Remux, HDDVD) [ 15.8 GB ] Безумные преподы / Les profs [2013 BD-Remux + Оригинал] Бумер Скачать
1 | 0
Фильмы (DVD фильмы) [ 5.87 GB ] Безумные преподы / Les profs [2013 DVD9] R5 voovaz Скачать
1 | 0

28-11-2019 20:33  

Отключить всю рекламу на сайте

20-10-2013 15:56 Безумные преподы Скачать торрент  

ХРЕНОТЕНЬ ПОЛНАЯpb.wtf



    Дорогой пользователь! Огромная просьба, поблагодарите релизера, оцените раздачу и оставьте свои комментарий, если Вы скачали Безумные преподы через торрент бесплатно! Внесите свою лепту в развитие PiratBit!
    Комментировать посты могут только пользователи прошедшие не сложную регистрацию
    Показать сообщения:    

    Безумные преподы через торрент
    Скачать бесплатно Безумные преподы
    Безумные преподы скачать торрент
    Безумные преподы смотреть онлайн
    Cкачать фильм Безумные преподы бесплатно
    Безумные преподы скачать торрент в хорошем качестве
    Безумные преподы смотреть онлайн бесплатно в хорошем качестве


    Вы не можете начинать темы
    Вы не можете отвечать на сообщения
    Вы не можете редактировать свои сообщения
    Вы не можете удалять свои сообщения
    Вы не можете голосовать в опросах
    Вы не можете прикреплять файлы к сообщениям
    Вы можете скачивать файлы