2 сезон

iTunes

MVO

1

2 сезон

iTunes

iTunes

1 сезон

RePack

30

Новинка

ВАЖНО

ИГРА 18+

pack

RePack

MK11
pack

Легкие деньги

RePack

jed

RePack

fifa19

RePack

RDR2

RePack

NEED FOR SPEED™ PAYBACK

4 сезон

9 сезон

Бесстыжие 9 сезон

Все сериалы

все сериалы на PB.wtf

RePack

FAR CRY 5

Anonymous, добрый вечер, мы не успеваем собрать деньги на оплату серверов за декабрь и январь, помогите нам пожалуйста в это трудное время. В качестве благодарности мы отключим Вам всю рекламу на сайте (укажите свой ник в строку Ваше имя)!

×
  
Magnet ссылка

Странный Томас / Odd Thomas (Стивен Соммерс / Stephen Sommers) [2013, США, триллер, детектив, фэнтези, HDRip, Профессиональный (многоголосый, закадровый)[Товарищество 110/17] pb.wtf

Странный Томас через торрент pb.wtf

Размер: 1.46 GB | Добавлен: 7 лет 3 мес. назад | Торрент скачан:2284 раза
Скачать  

20-10-2013 23:22 Странный Томас Скачать торрент  


Странный Томас / Odd Thomas


  • Год выпуска:2013
  • Страна:США
  • Жанр:триллер, детектив, фэнтези, боевик

  • Продолжительность: 01:36:40
  • Перевод:Профессиональный (многоголосый, закадровый)[Товарищество 110/17]

  • Субтитры: Нет
    • Режиссер:Стивен Соммерс / Stephen Sommers

  • В ролях:Антон Ельчин (Odd Thomas), Эддисон Тимлин (Stormy Llewellyn), Гугу Мбата-Роу (Viola Peabody), Нико Торторелла (Officer Simon Varner), Пэттон Освальт (Ozzie Boone), Уиллем Дефо (Chief Wyatt Porter), Эшли Соммерс (Penny Kalisto), Леонор Варела (Odd's Mother), Мэттью Пейдж (Harlo Landerson), Кэйси Мессер (Pool Mom), Барни Леннинг (Stevie), Кайл МакКивер (Officer Bern Eckles)
    • Описание:
      Главный герой наделен даром (или проклятием) видеть мертвецов. Каждый их визит становится началом очередной охоты на убийцу - призраки ведут Томаса на помощь тем, кому еще рано расставаться с жизнью. О способности героя знают только самые близкие друзья и любимая девушка. С их помощью ему предстоит отвести большую беду от маленького городка в центре пустыни Мохаве.

    Перевод: Константин Кривоногов
    Работа со звуком: Алексей Фокин
    Роли озвучивали: Михаил Суслов, Константин Погодаев, Владимир Чистохин, Алексей Фокин, Анастасия Флигина, Светлана Чистохина
    Бюджет:$27 000 000 / Мировая премьера:6 апреля 2013
    • Качество:HDRip
    • Формат:AVI
    • Видео кодек: XviD
    • Аудио кодек:AC3
    • Видео: XviD, 720x304 (2.35:1), 1766 kbps, 23,976 fps, 0,337 bpp
    • Аудио: AC3 / 5.1 / 48 kHz / 384 kbps / 16 bit

    • Когда Томас покидает больницу, на одном из знаков видна надпись «Мы верим в Странного» («In Odd We Trust»). Это название графической новеллы по циклу книг «Странный Томас», которая лежит в основе фильма.
    • Тим Роббинс рассматривался на роль Портера.
    • Съемки приостанавливались на несколько недель из-за финансовых проблем.
    • Лили Коллинз, Эмма Робертс, Кэт Деннингс и Портия Даблдэй рассматривались на роль Шторми. Коллинз была фавориткой, но отказалась, чтобы сняться в фильме «Белоснежка: Месть гномов» (2012).
    • Шон Пи Дидди Комбс и Фифти Сент первоначально рассматривались на роль Шамуса.
    • Изначально на роль Боба рассматривался Кевин Дж. О`Коннор.
    General
    Complete name : D:ТорентыStranniy.Tomas.2013.P.HDRip.1.46Gb.avi
    Format : AVI
    Format/Info : Audio Video Interleave
    File size : 1.46 GiB
    Duration : 1h 36mn
    Overall bit rate : 2 160 Kbps
    Writing application : VirtualDubMod 1.5.10.3 (build 2550/release)
    Writing library : VirtualDubMod build 2550/release

    Video
    ID : 0
    Format : MPEG-4 Visual
    Format profile : Advanced Simple@L5
    Format settings, BVOP : 2
    Format settings, QPel : No
    Format settings, GMC : No warppoints
    Format settings, Matrix : Custom
    Codec ID : XVID
    Codec ID/Hint : XviD
    Duration : 1h 36mn
    Bit rate : 1 766 Kbps
    Width : 720 pixels
    Height : 304 pixels
    Display aspect ratio : 2.35:1
    Frame rate : 23.976 fps
    Color space : YUV
    Chroma subsampling : 4:2:0
    Bit depth : 8 bits
    Scan type : Progressive
    Compression mode : Lossy
    Bits/(Pixel*Frame) : 0.337
    Stream size : 1.19 GiB (82%)
    Writing library : XviD 1.2.1 (UTC 2008-12-04)

    Audio
    ID : 1
    Format : AC-3
    Format/Info : Audio Coding 3
    Mode extension : CM (complete main)
    Codec ID : 2000
    Duration : 1h 36mn
    Bit rate mode : Constant
    Bit rate : 384 Kbps
    Channel(s) : 6 channels
    Channel positions : Front: L C R, Side: L R, LFE
    Sampling rate : 48.0 KHz
    Bit depth : 16 bits
    Compression mode : Lossy
    Stream size : 265 MiB (18%)
    Alignment : Split accross interleaves
    Interleave, duration : 42 ms (1.00 video frame)
    Interleave, preload duration : 500 ms

    © Оформление by Vetal
    pb.wtf



  • Скачать Странный Томас через торрент http://i58.fastpic.ru/big/2013/0922/31/4683bcd4960801b02604b79f43d30631.png Скачать фильм Странный Томас через торрент бесплантно в хорошем качестве Описание:Главный герой наделен даром (или проклятием) видеть мертвецов. Каждый их визит становится началом очередной охоты на убийцу - ... 9.1 10 48
    Info! Золотая раздача, скачанное не засчитывается.
    Торрент: Зарегистрирован [2013-10-20 23:22] · скачан: 2 284 раз
    Статус: √ проверено
    Размер: 1.46 GB
    Как cкачать? Как скачать Странный Томас через торрент | UTorrent

    % Раздел Тема Автор DL S | L
    Фильмы [HD 720p, 1080p] (Хороший звук DUB, MVO) [ 7.56 GB ] Странный Томас / Odd Thomas [2013 BDRip 1080p] MVO + Original Ворон Скачать
    3 | 1
    Фильмы без перевода [ 6.55 GB ] Странный Томас / Odd Thomas [2013 BDRip 1080p Оригинал] smaster Скачать
    1 | 0
    Фильмы 2013 [DVDrip, WEB-DLRip, HDrip] [ 1.41 GB ] Странный Томас / Odd Thomas [2013 DVDRip MVO] VintMosina Скачать
    1 | 0

    28-11-2019 20:33  

    Отключить всю рекламу на сайте

    21-10-2013 02:51 Странный Томас Скачать торрент  

    хороший легенький фильм,советуюpb.wtf



    21-10-2013 03:25 Странный Томас Скачать торрент  

    Мне понравилось, без претензий на шедевр.pb.wtf



    21-10-2013 10:30 Странный Томас Скачать торрент  

    Нормальный фильм!pb.wtf



    21-10-2013 12:40 Странный Томас Скачать торрент  

    скажите, а никто не знает когда лицензия выйдет?pb.wtf



    30-10-2013 19:40 Странный Томас Скачать торрент  

    Очень хороший фильм- советую к просмотру! pb.wtf



    02-11-2013 14:08 Странный Томас Скачать торрент  

    1 из 10 фильм не смотрите его!!!pb.wtf



    14-11-2013 12:49 Странный Томас Скачать торрент  

    И правда "Странный Томас"! Полный БРЕД! pb.wtf



    15-11-2013 08:12 Странный Томас Скачать торрент  

    Норм фильм=)))pb.wtf



      Дорогой пользователь! Огромная просьба, поблагодарите релизера, оцените раздачу и оставьте свои комментарий, если Вы скачали Странный Томас через торрент бесплатно! Внесите свою лепту в развитие PiratBit!
      Комментировать посты могут только пользователи прошедшие не сложную регистрацию
      Показать сообщения:    

      Странный Томас через торрент
      Скачать бесплатно Странный Томас
      Странный Томас скачать торрент
      Странный Томас смотреть онлайн
      Cкачать фильм Странный Томас бесплатно
      Странный Томас скачать торрент в хорошем качестве
      Странный Томас смотреть онлайн бесплатно в хорошем качестве


      Вы не можете начинать темы
      Вы не можете отвечать на сообщения
      Вы не можете редактировать свои сообщения
      Вы не можете удалять свои сообщения
      Вы не можете голосовать в опросах
      Вы не можете прикреплять файлы к сообщениям
      Вы можете скачивать файлы