Ссылка на приватное зеркало нашего сайта всего за 1$. Внимание количество ограничено!!!

2 сезон

iTunes

1 сезон

1

iTunes

iTunes

iTunes

1 сезон

RePack

30

ИГРА 18+

pack

ВАЖНО

!!Акция!!

Alien_RageХит недели

RePack

MK11
pack

Забери бонус

RePack

jed

!!Акция!!

Alien_Rage

RePack

fifa19

RePack

Assassins Creed: Odyssey

RePack

NEED FOR SPEED™ PAYBACK

4 сезон

9 сезон

Бесстыжие 9 сезон

Все сериалы

все сериалы на PB.wtf

RePack

FAR CRY 5
  

Канун дня всех святых / Hallows' Eve (Шон МакГарри / Sean McGarry) [2013, США, ужасы, WEB-DLRip, Любительский (двухголосый)[DeadSno & den904] pb.wtf

Канун дня всех святых через торрент pb.wtf

Размер: 1.37 GB | Добавлен: 7 лет назад | Торрент скачан:167 раз
Скачать  

23-10-2013 14:47 Канун дня всех святых Скачать торрент  


Канун дня всех святых / Hallows' Eve


  • Год выпуска:2013
  • Страна:США
  • Жанр:ужасы
  • Продолжительность: 01:18:05
  • Перевод:Любительский (двухголосый)[DeadSno & den904]

  • Субтитры: Нет
    • Режиссер:Шон МакГарри / Sean McGarry

  • В ролях:Даниэль Харрис (Nicole Bates), Рэймонд Мамрак (Matthew Bates), Кортни Бакстер (Eve Bates), Эшли С. Уильямс (Ashley), Тиффани Шепис (Sarah), Чэнс Майкл Корбитт (Tommy), Джош Флиттер (Marty), Ricky Rude (Kerone), Джеймс Багнелл (Eugene), Блейк Бакстер (Teen in Cuffs), Никки Белл (Kate), Мишель Берг (Young Nichole Bates)
    • Описание:
      Несколько лет спустя, после трагического несчастного случая, изуродовавшего маленькую девочку Еву на всю оставшуюся жизнь, люди, ответственные за это, встречаются все вместе на праздновании Хэллоуина.. Не зная о том, что на этот раз, это праздник в честь Евы ..

    Бюджет:$300 000 / Мировая премьера:1 октября 2013
    • Качество:WEB-DLRip
    • Формат:AVI
    • Видео кодек: XviD
    • Аудио кодек:AC3
    • Видео: XviD, 720x400 (16:9), 1916 kbps, 23,976 fps, 0,278 bpp
    • Аудио №1: AC3 / 2.0 / 48 kHz / 192 kbps / 16 bit /Russian
    • Аудио №2: AC3 / 5.1 / 48 kHz / 384 kbps / 16 bit / English

    General
    Complete name : D:ТорентыHallows.Eve.2013.L.WEBDLRip.avi
    Format : AVI
    Format/Info : Audio Video Interleave
    File size : 1.37 GiB
    Duration : 1h 18mn
    Overall bit rate : 2 507 Kbps
    Writing application : VirtualDubMod 1.5.10.3 | www.virtualdub-fr.org || (build 2550/release)
    Writing library : VirtualDubMod build 2550/release

    Video
    ID : 0
    Format : MPEG-4 Visual
    Format profile : Advanced Simple@L5
    Format settings, BVOP : 1
    Format settings, QPel : No
    Format settings, GMC : No warppoints
    Format settings, Matrix : Custom
    Codec ID : XVID
    Codec ID/Hint : XviD
    Duration : 1h 18mn
    Bit rate : 1 917 Kbps
    Width : 720 pixels
    Height : 400 pixels
    Display aspect ratio : 16:9
    Frame rate : 23.976 fps
    Color space : YUV
    Chroma subsampling : 4:2:0
    Bit depth : 8 bits
    Scan type : Progressive
    Compression mode : Lossy
    Bits/(Pixel*Frame) : 0.278
    Stream size : 1.05 GiB (76%)
    Writing library : XviD 1.2.1 (UTC 2008-12-04)

    Audio #1
    ID : 1
    Format : AC-3
    Format/Info : Audio Coding 3
    Mode extension : CM (complete main)
    Codec ID : 2000
    Duration : 1h 18mn
    Bit rate mode : Constant
    Bit rate : 192 Kbps
    Channel(s) : 2 channels
    Channel positions : Front: L R
    Sampling rate : 48.0 KHz
    Bit depth : 16 bits
    Compression mode : Lossy
    Stream size : 107 MiB (8%)
    Alignment : Split accross interleaves
    Interleave, duration : 42 ms (1.00 video frame)
    Interleave, preload duration : 500 ms

    Audio #2
    ID : 2
    Format : AC-3
    Format/Info : Audio Coding 3
    Mode extension : CM (complete main)
    Codec ID : 2000
    Duration : 1h 18mn
    Bit rate mode : Constant
    Bit rate : 384 Kbps
    Channel(s) : 6 channels
    Channel positions : Front: L C R, Side: L R, LFE
    Sampling rate : 48.0 KHz
    Bit depth : 16 bits
    Compression mode : Lossy
    Stream size : 214 MiB (15%)
    Alignment : Split accross interleaves
    Interleave, duration : 42 ms (1.00 video frame)
    Interleave, preload duration : 500 ms





    Трейлеры к фильмам [2013-2014]
    © Оформление by Vetal
    pb.wtf



  • Скачать Канун дня всех святых через торрент http://i58.fastpic.ru/big/2013/0922/31/4683bcd4960801b02604b79f43d30631.png Скачать фильм Канун дня всех святых через торрент бесплантно в хорошем качестве Описание:Несколько лет спустя, после трагического несчастного случая, изуродовавшего маленькую девочку Еву на всю оставшуюся жизнь, люди, ... 10 10 5
    Info! Золотая раздача, скачанное не засчитывается.
    Торрент: Зарегистрирован [2013-10-23 14:47] · скачан: 167 раз
    Статус: T временная
    Размер: 1.37 GB
    Как cкачать? Как скачать Канун дня всех святых через торрент | qTorrent

    28-11-2019 20:33  

    Отключить всю рекламу на сайте

    23-10-2013 15:05 Канун дня всех святых Скачать торрент  

    Бюджет:$300 000 мне кажется даже у порно роликов бюджет больше и они точно круче))
    очередной фейк для канала тв3.
    Канун дня всех святых :shoot2:pb.wtf



    23-10-2013 16:53 Канун дня всех святых Скачать торрент  

    mastre писал(а):

    Бюджет:$300 000 мне кажется даже у порно роликов бюджет больше и они точно круче))
    очередной фейк для канала тв3.
    Канун дня всех святых :shoot2:

    мда ужсpb.wtf



    23-10-2013 17:07 Канун дня всех святых Скачать торрент  

    я присоединяюсь к выше сказанному :shoot2: sarcasticpb.wtf



    24-10-2013 10:29 Канун дня всех святых Скачать торрент  

    Паранормальное явление, бюджет всего $15 000, рейтинг фильма 6.5, сборы в мире 193 770 453$ http://www.kinopoisk.ru/film/404366
    Не от бюджета зависит хороший или плохой фильм, как вы видите.pb.wtf



    04-11-2013 08:10 Канун дня всех святых Скачать торрент  

    Нет ребята, буджет бюджетом но эту блевотину я выдержал до конца потом часок в ступоре сидел.... а потом опять блевал, такую чуш я встречаю время от времени, но б-я чтоб так подставиться я не ожидал.pb.wtf



      Дорогой пользователь! Огромная просьба, поблагодарите релизера, оцените раздачу и оставьте свои комментарий, если Вы скачали Канун дня всех святых через торрент бесплатно! Внесите свою лепту в развитие PiratBit!
      Комментировать посты могут только пользователи прошедшие не сложную регистрацию
      Показать сообщения:    

      Канун дня всех святых через торрент
      Скачать бесплатно Канун дня всех святых
      Канун дня всех святых скачать торрент
      Канун дня всех святых смотреть онлайн
      Cкачать фильм Канун дня всех святых бесплатно
      Канун дня всех святых скачать торрент в хорошем качестве
      Канун дня всех святых смотреть онлайн бесплатно в хорошем качестве


      Вы не можете начинать темы
      Вы не можете отвечать на сообщения
      Вы не можете редактировать свои сообщения
      Вы не можете удалять свои сообщения
      Вы не можете голосовать в опросах
      Вы не можете прикреплять файлы к сообщениям
      Вы можете скачивать файлы