Ссылка на приватное зеркало нашего сайта всего за 1$. Внимание количество ограничено!!!

2 сезон

iTunes

1 сезон

1

2 сезон

2 сезон

iTunes

1 сезон

RePack

30

Ultimate

ВАЖНО

ИГРА 18+

pack

RePack

MK11
pack

Забери бонус

RePack

jed

!!Акция!!

Alien_Rage

RePack

fifa19

RePack

Assassins Creed: Odyssey

RePack

NEED FOR SPEED™ PAYBACK

4 сезон

9 сезон

Бесстыжие 9 сезон

Все сериалы

все сериалы на PB.wtf

RePack

FAR CRY 5
  

Анатомия Грей / Анатомия страсти / Grey's Anatomy / Сезон: 3 / Серии 1-25 (Полный сезон) [ 2007, США, драма, мелодрама, WEB-DL 720p ] MVO (СТС) pb.wtf

Анатомия Грей через торрент pb.wtf

Размер: 34.13 GB | Добавлен: 7 лет 1 мес. назад | Торрент скачан:211 раз
Скачать  

24-10-2013 13:27 Анатомия Грей Скачать торрент  

Анатомия страсти / Анатомия Грей / Grey's Anatomy
«Operations. Relations. Complications»
Год выпуска: 2007
Страна: США
Жанр: драма, мелодрама
Продолжительность: 00:41:35
Перевод: Профессиональный (многоголосый, закадровый) телеканал СТС
Субтитры: Нет
В ролях: Патрик Демпси (Dr. Derek Shepherd), Эллен Помпео (Dr. Meredith Grey), Сандра О (Dr. Cristina Yang), Джастин Чэмберс (Dr. Alex Karev), Чандра Уилсон (Dr. Miranda Bailey), Джеймс Пикенс мл. (Dr. Richard Webber), Эрик Дэйн (Dr. Mark Sloan), Кэтрин Хайгл (Dr. Izzie Stevens), Сара Рамирес (Dr. Callie Torres), Кевин МакКидд (Dr. Owen Hunt), Кайлер Ли (Dr. Lexie Grey), Джессика Кэпшоу (Dr. Arizona Robbins)
Описание:
В центре событий - молодая женщина-хирург Мередит Грей, дочь известного врача Эллис Грей. Она работает в городской больнице Сиэтла, и её коллеги, такие же начинающие врачи, как она. Хирурги оперируют и влюбляются, заводят истории болезни и служебные романы, хранят свои врачебные тайны, борются с осложнениями у пациентов и в собственной личной жизни. И зачастую отношения с противоположным полом волнуют их не меньше, чем вопрос приобретения ими профессионального опыта.
Название отсылает к одной из самых известных в хирургических кругах книге - "Анатомии Грея" за автороством Генри Грея (Grey's Anatomy).
Номинации (более 137) и победы (53), включая престижные Emmy, Golden Globe, SAG. (подробнее под спойлером)
Сериал вот уже на протяжении 10 сезонов остаётся самой рейтинговой драмой телеканала ABC.
Рейтинг
kinopoisk.ru: 8.233 (11 503)
imdb.com: 7.40 (99 615)
Качество: WEB-DL 720p
Формат: MKV
Видео кодек: AVC
Аудио кодек: AC3
Видео: AVC, 1280x720 (16:9), 24.000 fps, 3 885 Kbps (0.176 bit/pixel)
Аудио #1: 48.0 KHz, 2 ch, 192 Kbps, CBR (Russian)
Аудио #2: 48.0 KHz, 6 ch, 384 Kbps, CBR (English)
Первый сезон (дубляж) | Второй сезон (MVO СТС) | Третий сезон (MVO СТС) | Четвёртый сезон (дубляж) | Пятый сезон (MVO FoxLife)
Шестой сезон (MVO FoxLife) | Седьмой сезон (MVO FoxLife) | Восьмой сезон (MVO FoxLife)

Оформление: Messa-fan
General
Unique ID : 231524626286751045697682511244401207560 (0xAE2E056460598B10A448D72636226908)
Complete name : F:videoseriesGreys Anatomy720pGrey's Anatomy.Season 3.WEB-DL.720pGrey's.Anatomy.S03E01.720p.WEB-DL.h.264.Rus.Eng.mkv
Format : Matroska
Format version : Version 2
File size : 1.38 GiB
Duration : 43mn 28s
Overall bit rate : 4 551 Kbps
Encoded date : UTC 2010-07-06 13:25:37
Writing application : mkvmerge v4.0.0 ('The Stars were mine') built on Jun 6 2010 16:18:42
Writing library : libebml v1.0.0 + libmatroska v1.0.0

Video
ID : 1
Format : AVC
Format/Info : Advanced Video Codec
Format profile : High@L3.1
Format settings, CABAC : No
Format settings, ReFrames : 2 frames
Codec ID : V_MPEG4/ISO/AVC
Duration : 43mn 28s
Bit rate : 3 885 Kbps
Width : 1 280 pixels
Height : 720 pixels
Display aspect ratio : 16:9
Frame rate mode : Constant
Frame rate : 24.000 fps
Color space : YUV
Chroma subsampling : 4:2:0
Bit depth : 8 bits
Scan type : Progressive
Bits/(Pixel*Frame) : 0.176
Stream size : 1.18 GiB (85%)
Title : Greys Anatomy - S03E01 - Time Has Come Today
Language : English
Default : Yes
Forced : No
Color primaries : BT.709
Transfer characteristics : BT.709
Matrix coefficients : BT.709

Audio #1
ID : 3
Format : AC-3
Format/Info : Audio Coding 3
Format profile : Dolby Digital
Mode extension : CM (complete main)
Format settings, Endianness : Big
Codec ID : A_AC3
Duration : 43mn 28s
Bit rate mode : Constant
Bit rate : 192 Kbps
Channel(s) : 2 channels
Channel positions : Front: L R
Sampling rate : 48.0 KHz
Bit depth : 16 bits
Compression mode : Lossy
Stream size : 59.7 MiB (4%)
Language : Russian
Default : Yes
Forced : No

Audio #2
ID : 2
Format : AC-3
Format/Info : Audio Coding 3
Mode extension : CM (complete main)
Format settings, Endianness : Big
Codec ID : A_AC3
Duration : 43mn 28s
Bit rate mode : Constant
Bit rate : 384 Kbps
Channel(s) : 6 channels
Channel positions : Front: L C R, Side: L R, LFE
Sampling rate : 48.0 KHz
Bit depth : 16 bits
Compression mode : Lossy
Stream size : 119 MiB (8%)
Title : AC3 5.1 @ 384 kbps
Language : English
Default : No
Forced : No
Источники: IMDB | Wikipedia
Награды
. В целом шоу 38 раз было номинировано на высшую телевизионную премию «Эмми», выиграв четырежды: в 2006 году в категории «Лучший кастинг в драматическом сериале», в 2007 году в Кэтрин Хейгл получила премию «Лучшую женскую роль второго плана в драматическом телесериале», в 2010 году за «Лучший гримм» и в 2011 году Лоретта Дивайн получила премию в категории «Лучшая приглашенная актриса в драматическом телесериале» за роль Адель Веббер.

В 2005 году Сандра О выиграла премию «Золотой глобус» в категории «Лучшая женская роль второго плана — мини-сериал, телесериал или телефильм», а год спустя сериал был удостоен награды в категории «Лучший телевизионный сериал — драма». Сандра О в 2006 году выиграла «Премию Гильдии киноактёров США» в категории «за лучшую женскую роль в драматическом сериале», а год спустя Чандра Уилсон также получила награду в данной категории. В 2006 году сериал получил «Премию Гильдии киноактёров США за лучший актёрский ансамбль в драматическом сериале».

«Анатомия страсти» четырежды получала премию NAACP в категории «Лучший драматический телесериал», с 2006 по 2009 год. Чандра Уилсон выиграла четыре премии: за "Лучшую женскую роль второго плана " в 2007 и 2008, «Лучшую женскую роль» в 2009, и за лучшую режиссуру за эпизод «Give Peace a Chance» в 2010 году. Шонда Раймс выиграла четыре премии в категории «Лучший сценарий в драматическом сериале»: с 2007 по 2010 год. В 2006 году сериал был назван «Любимой драмой на ТВ» в рамках ежегодной премии «Выбор народа». Патрик Демпси получил премию «Любимая мужчина-звезда на ТВ» В 2006 и 2007 годах, а Хейгл получила премии «Любимая женщина-звезда на ТВ» в 2006 и «Лучшая актриса драмы на ТВ» в 2007 году. Уилсон в 2007 году также получила премию как «Лучшая актриса, крадущая сцены». В 2007 году Эллен Помпео получила «Спутник» в категории «Лучшая женская роль в драматическом сериале». В 2005 году сериал выиграл награду «Гильдии сценаристов Америки» в категории «Лучшее новое шоу».
Полный список наград можно увидеть на IMDB
Раздача с открытым DHT - сиды есть всегда.pb.wtf



Скачать Анатомия Грей через торрент http://i2.imageban.ru/out/2013/10/13/ae8bed63be565bdede7e7e05fe7bb329.jpg Скачать фильм Анатомия Грей через торрент бесплантно в хорошем качестве Описание: В центре событий - молодая женщина-хирург Мередит Грей, дочь известного врача Эллис Грей. Она работает в городской больнице ... 10 10 5
Info! Золотая раздача, скачанное не засчитывается.
Торрент: Зарегистрирован [2013-10-24 13:27] · скачан: 211 раз
Статус: √ проверено
Размер: 34.13 GB
Как cкачать? Как скачать Анатомия Грей через торрент | qTorrent

28-11-2019 20:33  

Отключить всю рекламу на сайте

23-08-2015 16:25 Анатомия Грей Скачать торрент  

Дайте скорости!..pb.wtf



    Дорогой пользователь! Огромная просьба, поблагодарите релизера, оцените раздачу и оставьте свои комментарий, если Вы скачали Анатомия Грей через торрент бесплатно! Внесите свою лепту в развитие PiratBit!
    Комментировать посты могут только пользователи прошедшие не сложную регистрацию
    Показать сообщения:    

    Анатомия Грей через торрент
    Скачать бесплатно Анатомия Грей
    Анатомия Грей скачать торрент
    Анатомия Грей смотреть онлайн
    Cкачать фильм Анатомия Грей бесплатно
    Анатомия Грей скачать торрент в хорошем качестве
    Анатомия Грей смотреть онлайн бесплатно в хорошем качестве


    Вы не можете начинать темы
    Вы не можете отвечать на сообщения
    Вы не можете редактировать свои сообщения
    Вы не можете удалять свои сообщения
    Вы не можете голосовать в опросах
    Вы не можете прикреплять файлы к сообщениям
    Вы можете скачивать файлы