Ссылка на приватное зеркало нашего сайта всего за 1$. Внимание количество ограничено!!!

2 сезон

iTunes

1 сезон

1

iTunes

iTunes

iTunes

1 сезон

RePack

30

ИГРА 18+

pack

ВАЖНО

!!Акция!!

Alien_RageХит недели

RePack

MK11
pack

Забери бонус

RePack

jed

!!Акция!!

Alien_Rage

RePack

fifa19

RePack

Assassins Creed: Odyssey

RePack

NEED FOR SPEED™ PAYBACK

4 сезон

9 сезон

Бесстыжие 9 сезон

Все сериалы

все сериалы на PB.wtf

RePack

FAR CRY 5
  

Бруклин в Манхэттене / N.Y.C. Underground (Джесси Терреро / Jessy Terrero) [2013, США, боевик, триллер, WEB-DLRip] VO pb.wtf

Бруклин в Манхэттене через торрент pb.wtf

Размер: 1.37 GB | Добавлен: 7 лет назад | Торрент скачан:207 раз
Скачать  

24-10-2013 23:04 Бруклин в Манхэттене Скачать торрент  


Бруклин в Манхэттене / N.Y.C. Underground

«One wrong turn could be your last»

  • Год выпуска:2013
  • Страна:США
  • Жанр:боевик, триллер

  • Продолжительность: 01:30:05
  • Перевод:Любительский (одноголосый)(Артём Белоконский)

  • Субтитры: Нет
    • Режиссер:Джесси Терреро / Jessy Terrero

  • В ролях:Даня Рамирес (Jessica), Шон Фэрис (Logan), Ариэль Кеббел (Chloe), Клейн Кроуфорд (Siman), Ивэн Росс (Sam), Роб Майес (Dylan Montgomery), Мари Кода (Go Go Dancer), Мэтт Сервитто (Ernie), Кристал Хант (Hannah), Рейнор Шайни (Mayor), Кевин Кэннон (Principal Moleman), Элизер Мейер (Mole Man)
    • Описание:
      Действия разворачиваются в тоннелях метро. Максимум усилий предстоит приложить двум братьям - Дилану и Логану, чтобы выбраться на поверхность невредимыми. Причем они не единственные, кому суждено побороться за жизнь.

    Бюджет:$8 000 000 / Мировая премьера:27 августа 2013
    • Качество:WEB-DLRip
    • Формат:AVI
    • Видео кодек: XviD
    • Аудио кодек:AC3
    • Видео: XviD, 720x400 (16:9), 1884 kbps, 23,976 fps, 0,273 bpp
    • Аудио: AC3 / 2.0 / 48 kHz / 192 kbps / 16 bit

    General
    Complete name : D:ТорентыZolotaya.lihoradka.2011.P.HDRip.1400Mb.avi
    Format : AVI
    Format/Info : Audio Video Interleave
    File size : 1.37 GiB
    Duration : 1h 30mn
    Overall bit rate : 2 171 Kbps
    Writing application : VirtualDubMod 1.5.10.2 (build 2540/release)
    Writing library : VirtualDubMod build 2540/release

    Video
    ID : 0
    Format : MPEG-4 Visual
    Format profile : Advanced Simple@L5
    Format settings, BVOP : 2
    Format settings, QPel : No
    Format settings, GMC : No warppoints
    Format settings, Matrix : Default (MPEG)
    Codec ID : XVID
    Codec ID/Hint : XviD
    Duration : 1h 30mn
    Bit rate : 1 884 Kbps
    Width : 720 pixels
    Height : 400 pixels
    Display aspect ratio : 16:9
    Frame rate : 23.976 fps
    Color space : YUV
    Chroma subsampling : 4:2:0
    Bit depth : 8 bits
    Scan type : Progressive
    Compression mode : Lossy
    Bits/(Pixel*Frame) : 0.273
    Stream size : 1.19 GiB (87%)
    Writing library : XviD 1.2.1 (UTC 2008-12-04)

    Audio
    ID : 1
    Format : AC-3
    Format/Info : Audio Coding 3
    Mode extension : CM (complete main)
    Codec ID : 2000
    Duration : 1h 30mn
    Bit rate mode : Constant
    Bit rate : 192 Kbps
    Channel(s) : 2 channels
    Channel positions : Front: L R
    Sampling rate : 48.0 KHz
    Bit depth : 16 bits
    Compression mode : Lossy
    Stream size : 124 MiB (9%)
    Alignment : Split accross interleaves





    Трейлеры к фильмам [2013-2014]
    © Оформление by Vetal
    pb.wtf



  • Скачать Бруклин в Манхэттене через торрент http://i58.fastpic.ru/big/2013/0922/31/4683bcd4960801b02604b79f43d30631.png Скачать фильм Бруклин в Манхэттене через торрент бесплантно в хорошем качестве Описание:Действия разворачиваются в тоннелях метро. Максимум усилий предстоит приложить двум братьям - Дилану и Логану, чтобы выбраться на ... 8.6 10 13
    Info! Золотая раздача, скачанное не засчитывается.
    Торрент: Зарегистрирован [2013-10-24 23:04] · скачан: 207 раз
    Статус: T временная
    Размер: 1.37 GB
    Как cкачать? Как скачать Бруклин в Манхэттене через торрент | qTorrent

    28-11-2019 20:33  

    Отключить всю рекламу на сайте

      Дорогой пользователь! Огромная просьба, поблагодарите релизера, оцените раздачу и оставьте свои комментарий, если Вы скачали Бруклин в Манхэттене через торрент бесплатно! Внесите свою лепту в развитие PiratBit!
      Комментировать посты могут только пользователи прошедшие не сложную регистрацию
      Показать сообщения:    

      Бруклин в Манхэттене через торрент
      Скачать бесплатно Бруклин в Манхэттене
      Бруклин в Манхэттене скачать торрент
      Бруклин в Манхэттене смотреть онлайн
      Cкачать фильм Бруклин в Манхэттене бесплатно
      Бруклин в Манхэттене скачать торрент в хорошем качестве
      Бруклин в Манхэттене смотреть онлайн бесплатно в хорошем качестве


      Вы не можете начинать темы
      Вы не можете отвечать на сообщения
      Вы не можете редактировать свои сообщения
      Вы не можете удалять свои сообщения
      Вы не можете голосовать в опросах
      Вы не можете прикреплять файлы к сообщениям
      Вы можете скачивать файлы