Всегда рабочее зеркало без VPN и Proxy просто перед .vidak.icu напиши любое слово или цифру, Пример http://dui9.vidak.icu

Лицензия

MVO

1 сезон

1

1 сезон

iTunes

1 сезон

13

1 сезон

Deluxe

pack

Рекомендуем

Repack

30

ВАЖНО

RePack

MK11

RePack

jed

RePack

fifa19

RePack

RDR2

RePack

NEED FOR SPEED™ PAYBACK

Кинопоиск HD

6 сезон

 Острые козырьки 6 сезон

Все сериалы

все сериалы на PB.wtf

RePack

FAR CRY 5
  
Magnet ссылка

Золотая лихорадка / Yellow Rock (Ник Валлелонга / Nick Vallelonga) [2011, США, вестерн, HDRip, Профессиональный (многоголосый, закадровый) НТВ+ pb.wtf

Золотая лихорадка через торрент pb.wtf

Размер: 1.37 GB | Добавлен: 8 лет 9 мес. назад | Торрент скачан:187 раз
Смотреть онлайн Золотая лихорадка | Скачать    Ребята, помогите собрать деньги на оплату серверов!!!

25-10-2013 08:17 Золотая лихорадка Скачать торрент  


Золотая лихорадка / Yellow Rock

«Between greed and betrayal lies a hard place...»

  • Год выпуска:2011
  • Страна:США
  • Жанр:вестерн
  • Продолжительность: 01:30:05
  • Перевод:Профессиональный (многоголосый, закадровый) НТВ+

  • Субтитры: Нет
    • Режиссер:Ник Валлелонга / Nick Vallelonga

  • В ролях:Майкл Бин (Tom Hanner), Джеймс Руссо (Max Dietrich), Ленор Андриел (Dr. Sarah Taylor), Майкл Спирс (Broken Wing), Эдди Спирс (Angry Wolf), Питер Шерайко (Farley), Кристофер Бакус (Cobb), Клэй Уилкокс (Roscoe), Брайан Глисон (Billy Boy), Эми Дженнингс (Martha), Пол Слоун (Johnson), Дженнифер Бланк (Monica)
    • Описание:
      Плохие парни приезжают в Йеллоу Рок и нанимают хорошего, чтобы якобы спасти родственников в горах. На самом деле, спасают они золото, точнее, прут его на священных землях индейцев. Плохие умирают. Хорошие ранены. Мораль от индейцев - золото нельзя есть.

    • Качество:HDRip
    • Формат:AVI
    • Видео кодек: XviD
    • Аудио кодек:AC3
    • Видео: XviD, 720x400 (16:9), 1969 kbps, 23,976 fps, 0,285 bpp
    • Аудио: AC3 / 2.0 / 48 kHz / 192 kbps / 16 bit

    General
    Complete name : D:ТорентыZolotaya.lihoradka.2011.P.HDRip.1400Mb.avi
    Format : AVI
    Format/Info : Audio Video Interleave
    File size : 1.37 GiB
    Duration : 1h 30mn
    Overall bit rate : 2 171 Kbps
    Writing application : VirtualDubMod 1.5.10.2 (build 2540/release)
    Writing library : VirtualDubMod build 2540/release

    Video
    ID : 0
    Format : MPEG-4 Visual
    Format profile : Advanced [email protected]
    Format settings, BVOP : 2
    Format settings, QPel : No
    Format settings, GMC : No warppoints
    Format settings, Matrix : Default (MPEG)
    Codec ID : XVID
    Codec ID/Hint : XviD
    Duration : 1h 30mn
    Bit rate : 1 970 Kbps
    Width : 720 pixels
    Height : 400 pixels
    Display aspect ratio : 16:9
    Frame rate : 23.976 fps
    Color space : YUV
    Chroma subsampling : 4:2:0
    Bit depth : 8 bits
    Scan type : Progressive
    Compression mode : Lossy
    Bits/(Pixel*Frame) : 0.285
    Stream size : 1.24 GiB (91%)
    Writing library : XviD 1.2.1 (UTC 2008-12-04)

    Audio
    ID : 1
    Format : AC-3
    Format/Info : Audio Coding 3
    Mode extension : CM (complete main)
    Codec ID : 2000
    Duration : 1h 30mn
    Bit rate mode : Constant
    Bit rate : 192 Kbps
    Channel(s) : 2 channels
    Channel positions : Front: L R
    Sampling rate : 48.0 KHz
    Bit depth : 16 bits
    Compression mode : Lossy
    Stream size : 124 MiB (9%)
    Alignment : Split accross interleaves
    Interleave, duration : 42 ms (1.00 video frame)
    Interleave, preload duration : 500 ms





    Трейлеры к фильмам [2013-2014]
    © Оформление by Vetal
    pb.wtf



  • Скачать Золотая лихорадка через торрент http://i58.fastpic.ru/big/2013/0922/31/4683bcd4960801b02604b79f43d30631.png Скачать, смотреть онлайн Золотая лихорадка бесплантно в хорошем качестве Описание:Плохие парни приезжают в Йеллоу Рок и нанимают хорошего, чтобы якобы спасти родственников в горах. На самом деле, спасают они ... 9 10 10
    Info! Золотая раздача, скачанное не засчитывается.
    Торрент: Зарегистрирован [2013-10-25 08:17] · скачан: 187 раз
    Статус: √ проверено
    Размер: 1.37 GB
    Как cкачать? Как скачать Золотая лихорадка через торрент | UTorrent

    28-11-2019 20:33  

    Отключить вcю реклaмy на сайте

    25-10-2013 08:53 Золотая лихорадка Скачать торрент  

    ахах описание интригуетpb.wtf



      Дорогой пользователь! Огромная просьба, поблагодарите релизера, оцените раздачу и оставьте свои комментарий, если Вы скачали Золотая лихорадка через торрент бесплатно!
      Комментировать посты могут только пользователи прошедшие не сложную регистрацию
      Показать сообщения:    

      Золотая лихорадка через торрент
      Скачать бесплатно Золотая лихорадка
      Золотая лихорадка скачать торрент
      Золотая лихорадка смотреть онлайн
      Cкачать фильм Золотая лихорадка бесплатно
      Золотая лихорадка скачать торрент в хорошем качестве
      Золотая лихорадка смотреть онлайн бесплатно в хорошем качестве


      Вы не можете начинать темы
      Вы не можете отвечать на сообщения
      Вы не можете редактировать свои сообщения
      Вы не можете удалять свои сообщения
      Вы не можете голосовать в опросах
      Вы не можете прикреплять файлы к сообщениям
      Вы можете скачивать файлы