2 сезон

iTunes

MVO

1

2 сезон

iTunes

iTunes

1 сезон

RePack

30

Новинка

ВАЖНО

ИГРА 18+

pack

RePack

MK11
pack

Легкие деньги

RePack

jed

RePack

fifa19

RePack

RDR2

RePack

NEED FOR SPEED™ PAYBACK

4 сезон

9 сезон

Бесстыжие 9 сезон

Все сериалы

все сериалы на PB.wtf

RePack

FAR CRY 5

Anonymous, доброй ночи, мы не успеваем собрать деньги на оплату серверов за декабрь и январь, помогите нам пожалуйста в это трудное время. В качестве благодарности мы отключим Вам всю рекламу на сайте (укажите свой ник в строку Ваше имя)!

×
  
Magnet ссылка

Кекс в большом городе / The Sweeter Side of Life (Майкл Дамиан / Michael Damian) [2013, США, комедия, DVDRip, Профессиональный (многоголосый, закадровый)[Лицензия] pb.wtf

Кекс в большом городе через торрент pb.wtf

Размер: 1.37 GB | Добавлен: 7 лет 3 мес. назад | Торрент скачан:626 раз
Скачать  

25-10-2013 08:34 Кекс в большом городе Скачать торрент  


Кекс в большом городе / The Sweeter Side of Life


  • Год выпуска:2013
  • Страна:США
  • Жанр:комедия
  • Продолжительность: 01:25:38
  • Перевод:Профессиональный (многоголосый, закадровый)[Лицензия]

  • Субтитры: Нет
    • Режиссер:Майкл Дамиан / Michael Damian

  • В ролях:Кэтрин Моррис (Desiree Harper), Джеймс Бест (Paddy Kerrigan), Аластер Маккензи (Benny Christophe), Steve Varnom (Eddie Rubinski), Сэм Дуглас (Dino Ravettino), Стефен Хоган (Wade Harper), Джейн Марч (Lana), Christine Oram (Francine), Джером Холдер (Calvin), Джеффри Бертон (Moe), Найджел Барбер (Keith Wonikur), Дэнни Морган (Martin Kemp)
    • Описание:
      У Дезире Харпер, светской львицы с Манхэттена, есть все - богатый супруг, красавицы-подруги и прекрасный гардероб. Но когда муж бросает ее и уходит к другой, идиллии приходит конец. Лишившись всего, Дезире пытается начать все сначала. Теперь ее дни заняты совсем другим - выпечкой кексов в пекарне своего отца, расположенной в маленьком городке в штате Нью-Джерси. Вскоре она понимает, что за пределами мегаполисов тоже можно жить полной жизнью, а настоящую любовь проще встретить в одноэтажной Америке, чем на Пятой авеню.

    • Качество:DVDRip
    • Формат:AVI
    • Видео кодек: XviD
    • Аудио кодек:AC3
    • Видео: XviD, 720x400 (16:9), 1758 kbps, 25 fps, 0,244 bpp
    • Аудио №1: AC3 / 5.1 / 48 kHz / 256 kbps / 16 bit-Russian
    • Аудио №2: AC3 / 5.1 / 48 kHz / 256 kbps / 16 bit / English

    General
    Complete name : D:ТорентыThe.Sweeter.Side.of.Life.2013.P.DVDRip.1400Mb.avi
    Format : AVI
    Format/Info : Audio Video Interleave
    File size : 1.37 GiB
    Duration : 1h 25mn
    Overall bit rate : 2 284 Kbps
    Writing application : VirtualDubMod 1.5.10.3 | www.virtualdub-fr.org || (build 2550/release)
    Writing library : VirtualDubMod build 2550/release

    Video
    ID : 0
    Format : MPEG-4 Visual
    Format profile : Advanced Simple@L5
    Format settings, BVOP : 1
    Format settings, QPel : No
    Format settings, GMC : No warppoints
    Format settings, Matrix : Custom
    Codec ID : XVID
    Codec ID/Hint : XviD
    Duration : 1h 25mn
    Bit rate : 1 758 Kbps
    Width : 720 pixels
    Height : 400 pixels
    Display aspect ratio : 16:9
    Frame rate : 25.000 fps
    Color space : YUV
    Chroma subsampling : 4:2:0
    Bit depth : 8 bits
    Scan type : Progressive
    Compression mode : Lossy
    Bits/(Pixel*Frame) : 0.244
    Stream size : 1.05 GiB (77%)
    Writing library : XviD 1.2.1 (UTC 2008-12-04)

    Audio #1
    ID : 1
    Format : AC-3
    Format/Info : Audio Coding 3
    Mode extension : CM (complete main)
    Codec ID : 2000
    Duration : 1h 25mn
    Bit rate mode : Constant
    Bit rate : 256 Kbps
    Channel(s) : 6 channels
    Channel positions : Front: L C R, Side: L R, LFE
    Sampling rate : 48.0 KHz
    Bit depth : 16 bits
    Compression mode : Lossy
    Stream size : 156 MiB (11%)
    Alignment : Split accross interleaves
    Interleave, duration : 40 ms (1.00 video frame)
    Interleave, preload duration : 500 ms

    Audio #2
    ID : 2
    Format : AC-3
    Format/Info : Audio Coding 3
    Mode extension : CM (complete main)
    Codec ID : 2000
    Duration : 1h 25mn
    Bit rate mode : Constant
    Bit rate : 256 Kbps
    Channel(s) : 6 channels
    Channel positions : Front: L C R, Side: L R, LFE
    Sampling rate : 48.0 KHz
    Bit depth : 16 bits
    Compression mode : Lossy
    Stream size : 156 MiB (11%)
    Alignment : Split accross interleaves
    Interleave, duration : 40 ms (1.00 video frame)
    Interleave, preload duration : 500 ms





    Трейлеры к фильмам [2013-2014]
    © Оформление by Vetal
    pb.wtf



  • Скачать Кекс в большом городе через торрент http://i58.fastpic.ru/big/2013/0922/31/4683bcd4960801b02604b79f43d30631.png Скачать фильм Кекс в большом городе через торрент бесплантно в хорошем качестве Описание:У Дезире Харпер, светской львицы с Манхэттена, есть все - богатый супруг, красавицы-подруги и прекрасный гардероб. Но когда муж ... 9.2 10 13
    Info! Золотая раздача, скачанное не засчитывается.
    Торрент: Зарегистрирован [2013-10-25 08:34] · скачан: 626 раз
    Статус: √ проверено
    Размер: 1.37 GB
    Как cкачать? Как скачать Кекс в большом городе через торрент | UTorrent

    28-11-2019 20:33  

    Отключить всю рекламу на сайте

      Дорогой пользователь! Огромная просьба, поблагодарите релизера, оцените раздачу и оставьте свои комментарий, если Вы скачали Кекс в большом городе через торрент бесплатно! Внесите свою лепту в развитие PiratBit!
      Комментировать посты могут только пользователи прошедшие не сложную регистрацию
      Показать сообщения:    

      Кекс в большом городе через торрент
      Скачать бесплатно Кекс в большом городе
      Кекс в большом городе скачать торрент
      Кекс в большом городе смотреть онлайн
      Cкачать фильм Кекс в большом городе бесплатно
      Кекс в большом городе скачать торрент в хорошем качестве
      Кекс в большом городе смотреть онлайн бесплатно в хорошем качестве


      Вы не можете начинать темы
      Вы не можете отвечать на сообщения
      Вы не можете редактировать свои сообщения
      Вы не можете удалять свои сообщения
      Вы не можете голосовать в опросах
      Вы не можете прикреплять файлы к сообщениям
      Вы можете скачивать файлы