2 сезон

iTunes

MVO

1

2 сезон

iTunes

iTunes

1 сезон

RePack

30

Новинка

ВАЖНО

ИГРА 18+

pack

RePack

MK11
pack

Легкие деньги

RePack

jed

RePack

fifa19

RePack

RDR2

RePack

NEED FOR SPEED™ PAYBACK

4 сезон

9 сезон

Бесстыжие 9 сезон

Все сериалы

все сериалы на PB.wtf

RePack

FAR CRY 5

Anonymous, доброй ночи, мы не успеваем собрать деньги на оплату серверов за декабрь и январь, помогите нам пожалуйста в это трудное время. В качестве благодарности мы отключим Вам всю рекламу на сайте (укажите свой ник в строку Ваше имя)!

×
  
Magnet ссылка

Джек – покоритель великанов в 3D / Jack the Giant Slayer in 3D (Брайан Сингер) [2013 г., фэнтези, приключения, BDRip 1080p, Дубляж + Оригинал] Anaglyph (Дюбуа) pb.wtf

Джек – покоритель великанов в 3D через торрент pb.wtf

Размер: 7.01 GB | Добавлен: 7 лет 2 мес. назад | Торрент скачан:89 раз
Скачать  

08-06-2013 17:00 Джек – покоритель великанов в 3D Скачать торрент  

Джек – покоритель великанов в 3D / Jack the Giant Slayer in 3D
Год выпуска: 2013
Страна: США
Жанр: фэнтези, приключения,
Продолжительность: 01:54:18
Перевод: Дубляж (Line) + Оригинал

Режиссер: Брайан Сингер
Продюссер: Дэвид Добкин, Ори Мармур, Патрик МакКормик
Сценарий: Даррен Лемке, Кристофер МакКуорри, Дэн Стадни

Бюджет: $195 000 000
Премьера в мире: 1 марта 2013

IMDB 6.40 (24 061)



В ролях: Николас Холт, Элинор Томлинсон, Юэн МакГрегор, Стэнли Туччи, Иэн МакШейн, Билл Найи, Джон Кассир, Бен Дэниелс, Юэн Бремнер, Эдди Марсан,
Роли дублировали: Евгений Вальц, Мария Иващенко, Сергей Бурунов, Алексей Рязанцев, Андрей Данилюк,

Описание: История начинается с похищения принцессы, что грозит нарушить хрупкий мир между людьми и великанами. Юный фермер возглавляет вылазку в царство гигантов в надежде спасти девушку.

Доп. информация: Формат 3D: Анаглиф (Дюбуа)



Качество: BDRip 1080p
Формат: MKV
Видео кодек: H.264
Аудио кодек: AC3
Видео: 1920 х 816 / 23,976 fps, (2,35:1) / 8001 Kbps, (0.213 bit/pixel)
Аудио#1: Русский / AC3 / 48 KHz / 5.1 ch / 384 Kbps ( Line )
Аудио#2: Английский / AC3 / 48 KHz / 5.1 ch / 384 Kbps



скриншот   скриншот   скриншот   скриншот   скриншот   скриншот  
Общее
Уникальный идентификатор : 32195102331811866854669383818192231540 (0x18388D191B438CB7BB357D3541961C74)
Полное имя : D:DVDJack.The.Giant.Slayer.2013.3D.(Anaglyph_Dubois).mkv
Формат : Matroska
Версия формата : Version 2
Размер файла : 7,01 Гбайт
Продолжительность : 1 ч. 54 м.
Общий поток : 8778 Кбит/сек
Программа кодирования : HandBrake 0.9.9
Библиотека кодирования : libmkv 0.6.5
TITLE : Jack The Giant Slayer.3D.(Anaglyph_Dubois)

Видео
Идентификатор : 1
Формат : AVC
Формат/Информация : Advanced Video Codec
Профиль формата : Baseline@L4.0
Параметр CABAC формата : Нет
Параметр ReFrames формата : 1 кадр
Идентификатор кодека : V_MPEG4/ISO/AVC
Продолжительность : 1 ч. 54 м.
Битрейт : 8001 Кбит/сек
Ширина : 1920 пикселей
Высота : 816 пикселей
Соотношение сторон : 2,35:1
Режим частоты кадров : Постоянный
Частота кадров : 23,976 кадра/сек
Цветовое пространство : YUV
Субдискретизация насыщенности : 4:2:0
Битовая глубина : 8 бит
Тип развёртки : Прогрессивная
Бит/(Пиксели*Кадры) : 0.213
Размер потока : 6,26 Гбайт (89%)
Библиотека кодирования : x264 core 130 r2273 b3065e6
Настройки программы : cabac=0 / ref=1 / deblock=0:0:0 / analyse=0:0 / me=dia / subme=0 / psy=1 / psy_rd=1.00:0.00 / mixed_ref=0 / me_range=16 / chroma_me=1 / trellis=0 / 8x8dct=0 / cqm=0 / deadzone=21,11 / fast_pskip=1 / chroma_qp_offset=0 / threads=3 / lookahead_threads=1 / sliced_threads=0 / nr=0 / decimate=1 / interlaced=0 / bluray_compat=0 / constrained_intra=0 / bframes=0 / weightp=0 / keyint=240 / keyint_min=24 / scenecut=0 / intra_refresh=0 / rc=abr / mbtree=0 / bitrate=8001 / ratetol=1.0 / qcomp=0.60 / qpmin=0 / qpmax=69 / qpstep=4 / ip_ratio=1.40 / aq=0
Язык : English
Default : Да
Forced : Нет
Основные цвета : BT.709
Характеристики трансфера : BT.709
Коэффициенты матрицы : BT.709

Аудио #1
Идентификатор : 2
Формат : AC-3
Формат/Информация : Audio Coding 3
Расширение режима : CM (complete main)
Параметр Endianness формата : Big
Идентификатор кодека : A_AC3
Продолжительность : 1 ч. 54 м.
Вид битрейта : Постоянный
Битрейт : 384 Кбит/сек
Каналы : 6 каналов
Расположение каналов : Front: L C R, Side: L R, LFE
Частота : 48,0 КГц
Битовая глубина : 16 бит
Метод сжатия : С потерями
Размер потока : 314 Мбайт (4%)
Язык : Russian
Default : Да
Forced : Нет

Аудио #2
Идентификатор : 3
Формат : AC-3
Формат/Информация : Audio Coding 3
Расширение режима : CM (complete main)
Параметр Endianness формата : Big
Идентификатор кодека : A_AC3
Продолжительность : 1 ч. 54 м.
Вид битрейта : Постоянный
Битрейт : 384 Кбит/сек
Каналы : 6 каналов
Расположение каналов : Front: L C R, Side: L R, LFE
Частота : 48,0 КГц
Битовая глубина : 16 бит
Метод сжатия : С потерями
Размер потока : 314 Мбайт (4%)
Язык : English
Default : Нет
Forced : Нет

Меню
00:00:00.000 : Chapter 1
00:10:21.412 : Chapter 2
00:19:23.787 : Chapter 3
00:29:52.248 : Chapter 4
00:38:55.416 : Chapter 5
00:49:24.920 : Chapter 6
00:59:35.530 : Chapter 7
01:09:26.328 : Chapter 8
01:20:39.209 : Chapter 9
01:29:51.344 : Chapter 10
01:39:02.853 : Chapter 11
01:45:57.768 : Chapter 12


Джек – покоритель великанов скачать торрент


pb.wtf



Скачать Джек – покоритель великанов в 3D через торрент http://i47.fastpic.ru/big/2013/0608/13/279bd4cff264ef10d855cbd7a00e9e13.gif Скачать фильм Джек – покоритель великанов в 3D через торрент бесплантно в хорошем качестве Описание: История начинается с похищения принцессы, что грозит нарушить хрупкий мир между людьми и великанами. Юный фермер возглавляет ... 10 10 4
Info! Золотая раздача, скачанное не засчитывается.
Торрент: Зарегистрирован [2013-10-25 21:28] · скачан: 89 раз
Статус: √ проверено
Размер: 7.01 GB
Как cкачать? Как скачать Джек – покоритель великанов в 3D через торрент | UTorrent

28-11-2019 20:33  

Отключить всю рекламу на сайте

08-06-2013 17:42 Джек – покоритель великанов в 3D Скачать торрент  

Постер ништяк :good:pb.wtf



08-06-2013 17:51 Джек – покоритель великанов в 3D Скачать торрент  

Спасибо. Старался. Думаю получился нормально.pb.wtf



    Дорогой пользователь! Огромная просьба, поблагодарите релизера, оцените раздачу и оставьте свои комментарий, если Вы скачали Джек – покоритель великанов в 3D через торрент бесплатно! Внесите свою лепту в развитие PiratBit!
    Комментировать посты могут только пользователи прошедшие не сложную регистрацию
    Показать сообщения:    

    Джек – покоритель великанов в 3D через торрент
    Скачать бесплатно Джек – покоритель великанов в 3D
    Джек – покоритель великанов в 3D скачать торрент
    Джек – покоритель великанов в 3D смотреть онлайн
    Cкачать фильм Джек – покоритель великанов в 3D бесплатно
    Джек – покоритель великанов в 3D скачать торрент в хорошем качестве
    Джек – покоритель великанов в 3D смотреть онлайн бесплатно в хорошем качестве


    Вы не можете начинать темы
    Вы не можете отвечать на сообщения
    Вы не можете редактировать свои сообщения
    Вы не можете удалять свои сообщения
    Вы не можете голосовать в опросах
    Вы не можете прикреплять файлы к сообщениям
    Вы можете скачивать файлы