2 сезон

iTunes

MVO

1

2 сезон

iTunes

iTunes

1 сезон

RePack

30

Новинка

ВАЖНО

ИГРА 18+

pack

RePack

MK11
pack

Легкие деньги

RePack

jed

RePack

fifa19

RePack

RDR2

RePack

NEED FOR SPEED™ PAYBACK

4 сезон

9 сезон

Бесстыжие 9 сезон

Все сериалы

все сериалы на PB.wtf

RePack

FAR CRY 5

Anonymous, добрый день, мы не успеваем собрать деньги на оплату серверов за декабрь и январь, помогите нам пожалуйста в это трудное время. В качестве благодарности мы отключим Вам всю рекламу на сайте (укажите свой ник в строку Ваше имя)!

×
  
Magnet ссылка

Джек – покоритель великанов / Jack The Giant Slayer (Брайан Сингер / Bryan Singer) [2013 г., фэнтези, приключения, НDRip] DUB [Line]+Оригинал pb.wtf

Джек – покоритель великанов через торрент pb.wtf

Размер: 2.18 GB | Добавлен: 7 лет 2 мес. назад | Торрент скачан:315 раз
Скачать  

01-06-2013 12:23 Джек – покоритель великанов Скачать торрент  

Джек – покоритель великанов / Jack the Giant Slayer


  • Год выпуска:2013
  • Страна: США
  • Жанр:фэнтези, приключения
  • Продолжительность: 01:54:10
  • Перевод:Профессиональный (полное дублирование)+Оригинал
    • Режиссер: Брайан Сингер / Bryan Singer
    • Продюсер: Брайан Сингер / Bryan Singer, Дэвид Добкин / David Dobkin, Ори Мармур / Ori Marmur, Патрик МакКормик / Patrick McCormick, Нил Х. Мориц / Neal H. Moritz
    • Сценарий:Даррен Лемке / Darren Lemke, Кристофер МакКуорри / Christopher McQuarrie, Дэн Стадни / Dan Studney, Дэвид Добкин / David Dobkin

  • В ролях:Николас Холт (Jack), Элинор Томлинсон (Isabelle), Юэн МакГрегор (Elmont), Стэнли Туччи (Roderick), Иэн МакШейн (King Brahmwell), Билл Найи (General Fallon), Джон Кассир (General Fallon's Small Head), Бен Дэниелс (Fumm), Юэн Бремнер (Wicke), Эдди Марсан (Crawe), Кристофер Фэйрбэнк (Uncle), Саймон Лоу (Monk)
    • Описание:
      История начинается с похищения принцессы, что грозит нарушить хрупкий мир между людьми и великанами. Юный фермер возглавляет вылазку в царство гигантов в надежде спасти девушку.

  • Рейтинг
    kinopoisk.ru: 6.712 (7596)
    imdb.com: 6.60 (16 314)
    MPAA: PG-13 - Детям до 13 лет просмотр не желателен
    • Качество: HDRip
    • Формат: AVI
    • Видео кодек: XviD
    • Аудио кодек: AC3
    • Видео: XviD; 720x304 (2.35:1);~1829 Kbps; 23.98 fps
    • Аудио №1: AC3; 448 Kbps; CBR; 6 ch, 48 kHz
    • Аудио №2: AC3; 448 Kbps; CBR; 2 ch, 48 kHz [Оригинал]

    Общее
    Полное имя : D:ТорентыJack.pokoritel.velikanov.2013.D.HDRip.2100MB..avi
    Формат : AVI
    Формат/Информация : Audio Video Interleave
    Размер файла : 2,18 Гбайт
    Продолжительность : 1 ч. 54 м.
    Общий поток : 2739 Кбит/сек
    Программа кодирования : VirtualDubMod 1.5.10.2 (build 2540/release)
    Библиотека кодирования : VirtualDubMod build 2540/release

    Видео
    Идентификатор : 0
    Формат : MPEG-4 Visual
    Профиль формата : Advanced Simple@L5
    Параметр BVOP формата : 2
    Параметр QPel формата : Нет
    Параметр GMC формата : Без точки перехода
    Параметр матрицы формата : Default (MPEG)
    Идентификатор кодека : XVID
    Идентификатор кодека/Подсказка : XviD
    Продолжительность : 1 ч. 54 м.
    Битрейт : 1829 Кбит/сек
    Ширина : 720 пикселей
    Высота : 304 пикселя
    Соотношение сторон : 2,35:1
    Частота кадров : 23,976 кадра/сек
    Цветовое пространство : YUV
    Субдискретизация насыщенности : 4:2:0
    Битовая глубина : 8 бит
    Тип развёртки : Прогрессивная
    Метод сжатия : С потерями
    Бит/(Пиксели*Кадры) : 0.349
    Размер потока : 1,46 Гбайт (67%)
    Библиотека кодирования : XviD 1.2.1 (UTC 2008-12-04)

    Аудио #1
    Идентификатор : 1
    Формат : AC-3
    Формат/Информация : Audio Coding 3
    Расширение режима : CM (complete main)
    Параметр Endianness формата : Big
    Идентификатор кодека : 2000
    Продолжительность : 1 ч. 54 м.
    Вид битрейта : Постоянный
    Битрейт : 448 Кбит/сек
    Каналы : 6 каналов
    Расположение каналов : Front: L C R, Side: L R, LFE
    Частота : 48,0 КГц
    Битовая глубина : 16 бит
    Метод сжатия : С потерями
    Размер потока : 366 Мбайт (16%)
    Выравнивание : Разделение по промежуткам
    Продолжительность промежутка : 42 мс. (1,00 видеокадр)
    Время предзагрузки промежутка : 500 мс.

    Аудио #2
    Идентификатор : 2
    Формат : AC-3
    Формат/Информация : Audio Coding 3
    Расширение режима : CM (complete main)
    Параметр Endianness формата : Big
    Идентификатор кодека : 2000
    Продолжительность : 1 ч. 54 м.
    Вид битрейта : Постоянный
    Битрейт : 448 Кбит/сек
    Каналы : 2 канала
    Расположение каналов : Front: L R
    Частота : 48,0 КГц
    Битовая глубина : 16 бит
    Метод сжатия : С потерями
    Размер потока : 366 Мбайт (16%)
    Выравнивание : Разделение по промежуткам
    Продолжительность промежутка : 42 мс. (1,00 видеокадр)
    Время предзагрузки промежутка : 500 мс.
    Сценарий: Даррен Лемке / Darren Lemke, Кристофер МакКуорри / Christopher McQuarrie, Дэн Стадни / Dan Studney, Дэвид Добкин / David Dobkin
    Продюсер: Брайан Сингер / Bryan Singer, Дэвид Добкин / David Dobkin, Ори Мармур / Ori Marmur, Патрик МакКормик / Patrick McCormick, Нил Х. Мориц / Neal H. Moritz
    Оператор: Ньютон Томас Сигел / Newton Thomas Sigel
    Композитор: Джон Оттмен / John Ottman

    Бюджет: $195 000 000
    Сборы в США: $65 039 498
    Сборы в России: $14 918 109
    Сборы в мире: $197 539 498

    Мировая премьера: 27 февраля 2013
    Релиз на DVD: 20 июня 2013, «CP Дистрибуция»
    Релиз на Blu-ray: 20 июня 2013, «CP Дистрибуция»
    • Персонаж Юэна МакГрегора говорит, что у него плохое предчувствие. Эту же фразу дважды произносит его персонаж из «Звездных войн» Оби-Ван Кеноби. Уорвик Дэвис и Ральф Браун также снимались вместе с ним в «Звездные войны: Эпизод 1 - Скрытая угроза» (1999).
    • В фильме есть некоторые намеки на библейскую историю Давида. Давид, как и Джек, убил великана, а затем женился на дочери короля, чтобы самому стать королем. Давид убил Голиафа, используя рогатку. А в фильме один из великанов стреляет по городу камнями из рогатки.
    • Во время боя с Родериком Элмонт три раза роняет кинжал Джека, но при этом поднимает его только один раз. В первый раз - когда он падает на гигантскую статую (он не поднимает его), второй - когда клинок выбивают из его рук (позже он подбирает его ртом), в третий раз - когда лезвие пронзает Родерика. Не показывают, как между первым и вторым разом кинжал попадает в руки Элмонта.


    Скриншоты
    © Оформление by Vetalpb.wtf



  • Скачать Джек – покоритель великанов через торрент http://i47.fastpic.ru/big/2013/0505/55/ff0fbc48f98fa52c0fc275351a996d55.png Скачать фильм Джек – покоритель великанов через торрент бесплантно в хорошем качестве Описание:История начинается с похищения принцессы, что грозит нарушить хрупкий мир между людьми и великанами. Юный фермер возглавляет ... 9.8 10 39
    Info! Золотая раздача, скачанное не засчитывается.
    Торрент: Зарегистрирован [2013-10-25 21:31] · скачан: 315 раз
    Статус: √ проверено
    Размер: 2.18 GB
    Как cкачать? Как скачать Джек – покоритель великанов через торрент | UTorrent

    % Раздел Тема Автор DL S | L
    Фильмы [HD 720p, 1080p] (Хороший звук DUB, MVO) [ 8.01 GB ] Джек – покоритель великанов / Jack The Giant Slayer [2013 BDRip 1080p] DUB [Line]+Оригинал Ворон Скачать
    1 | 0
    Фильмы [HD 720p, 1080p] (Хороший звук DUB, MVO) [ 9.42 GB ] Джек – покоритель великанов / Jack The Giant Slayer [2013 BDRip 1080p + Оригинал+Укр] Trava-HD Скачать
    1 | 0
    T Фильмы (Blu-ray, BD-Remux, HDDVD) [ 22.82 GB ] Джек – покоритель великанов / Jack The Giant Slayer [2013 Blu-Ray Remux ] DUB [Line]+Оригинал Зайчина Скачать
    1 | 1
    3D Фильмы [ 7.01 GB ] Джек – покоритель великанов в 3D / Jack the Giant Slayer in 3D [2013 BDRip 1080p + Оригинал] Anaglyph slaventi-69 Скачать
    1 | 0

    28-11-2019 20:33  

    Отключить всю рекламу на сайте

      Дорогой пользователь! Огромная просьба, поблагодарите релизера, оцените раздачу и оставьте свои комментарий, если Вы скачали Джек – покоритель великанов через торрент бесплатно! Внесите свою лепту в развитие PiratBit!
      Комментировать посты могут только пользователи прошедшие не сложную регистрацию
      Показать сообщения:    

      Джек – покоритель великанов через торрент
      Скачать бесплатно Джек – покоритель великанов
      Джек – покоритель великанов скачать торрент
      Джек – покоритель великанов смотреть онлайн
      Cкачать фильм Джек – покоритель великанов бесплатно
      Джек – покоритель великанов скачать торрент в хорошем качестве
      Джек – покоритель великанов смотреть онлайн бесплатно в хорошем качестве


      Вы не можете начинать темы
      Вы не можете отвечать на сообщения
      Вы не можете редактировать свои сообщения
      Вы не можете удалять свои сообщения
      Вы не можете голосовать в опросах
      Вы не можете прикреплять файлы к сообщениям
      Вы можете скачивать файлы