2 сезон

iTunes

MVO

1

2 сезон

iTunes

iTunes

1 сезон

RePack

30

Новинка

ВАЖНО

ИГРА 18+

pack

RePack

MK11
pack

Легкие деньги

RePack

jed

RePack

fifa19

RePack

RDR2

RePack

NEED FOR SPEED™ PAYBACK

4 сезон

9 сезон

Бесстыжие 9 сезон

Все сериалы

все сериалы на PB.wtf

RePack

FAR CRY 5

Anonymous, доброй ночи, мы не успеваем собрать деньги на оплату серверов за декабрь и январь, помогите нам пожалуйста в это трудное время. В качестве благодарности мы отключим Вам всю рекламу на сайте (укажите свой ник в строку Ваше имя)!

×
  
Magnet ссылка

Амфибия 3D / Amphibious 3D (Брайан Юзна / Brian Yuzna) [ 2010 , Нидерланды, Индонезия , ужасы, боевик, триллер , BDRip 1080p, Профессиональный (многоголосый, закадровый), Half OverUnder / Вертикальная анаморфная стереопара ] pb.wtf

Амфибия 3D через торрент pb.wtf

Размер: 5.61 GB | Добавлен: 7 лет 2 мес. назад | Торрент скачан:478 раз
Скачать  

26-10-2013 02:38 Амфибия 3D Скачать торрент  

Амфибия 3D / Amphibious 3D«Оно проснулось...»
Год выпуска: 2010
Страна: Нидерланды, Индонезия
Жанр: ужасы, боевик, триллер
Продолжительность: 01:26:27
Перевод: Профессиональный (многоголосый, закадровый)+Английский
Субтитры: Нет

Режиссер:Брайан Юзна / Brian Yuzna
Сценарий:Сан Фу Малта / San Fu Maltha, Джон Пенни / John Penney, Сомтов Сучариткул / Somtow Sucharitkul, Брайан Юзна / Brian Yuzna
Продюсер:Сан Фу Малта / San Fu Maltha, Брайан Юзна / Brian Yuzna, Тед Чалмерс / Ted Chalmers, Рэй Хэбуш / Ray Haboush, Нико Пост / Niko Post
Оператор:Мик Ван Россум / Mick Van Rossum
Композитор:Фонс Меркиес / Fons Merkies

Верди Солайман (Andi), Мохаммад Адитья (Big Rudi), Стивен Барай (Rizal), Дорман Борисман (Bimo), Френсис Боско (Boss Harris), Янна Фассаерт (Skylar Shane), Микаэл С. Джехиан (Aris), Френсис Маджи (Jimmy Kudrow), Тимо Оттевангер (Logan), Джошуа Паделаки (Officer Santoso), Майкл Паре (Jack Bowman), Ida Jessica Peter (Rebecca Shane)

Рейтинг
kinopoisk.ru: 3.632 (259)
imdb.com: 3.90 (460)
MPAA: R - Лицам до 17 лет обязательно присутствие взрослого

Формат 3D: Half OverUnder / Вертикальная анаморфная стереопара
Порядок ракурсов: левый ракурс первый
Описание:
Морской биолог Скайлар Шейн нанимает лодку капитана Джека Боумана, чтобы найти образцы доисторических форм возле северного побережья Суматры. Во время экспедиции, они сталкиваются с бандой контрабандистов, скрывающихся на рыболовецкой платформе посреди моря. Но контрабандисты не самое страшное, с чем придется столкнуться Скайлар - приближается жуткий шторм, а в темных глубинах вод проснулось древнее и могучее существо...

Качество: BDRip 1080p
Формат: MKV
Видео кодек: XviD
Аудио кодек: AC3
Видео: AVC, 1920x1080 (16:9), 8200 kbps, 23,976 fps, 0,165 bpp
Аудио №1: русский / AC3 / 2.0 / 48 kHz / 448 kbps / 16 bit
Аудио №2: английский / AC3 / 5.1 / 48 kHz / 640 kbps / 16 bit




Общее
Кол-во : 284
Кол-во потоков такого типа : 1
Тип потока : General
Тип потока : Общее
Идентификатор типа потока : 0
Уникальный идентификатор : 244331354636787621811604653206464042085
Уникальный идентификатор : 244331354636787621811604653206464042085 (0xB7D081D97B81060FB40561F466831465)
Кол-во видеопотоков : 1
Кол-во аудиопотоков : 2
Кол-во потоков меню : 1
Video_Format_List : AVC
Video_Format_WithHint_List : AVC
Видеокодеки : AVC
Video_Language_List : English
Audio_Format_List : AC-3 / AC-3
Audio_Format_WithHint_List : AC-3 / AC-3
Аудиокодеки : AC3 / AC3
Audio_Language_List : Russian / English
Полное имя : H:ТОРРЕНТЫАмфибия.mkv
Имя папки : H:ТОРРЕНТЫ
Имя файла : Амфибия
Расширение : mkv
Формат : Matroska
Формат : Matroska
Формат/Ссылка : http://packs.matroska.org/
Формат/Используется в : mkv mk3d mka mks
Коммерческое название : Matroska
Версия формата : Version 4 / Version 2
Кодек : Matroska
Кодек : Matroska
Кодек/Ссылка : http://packs.matroska.org/
Кодек/Используется в : mkv mk3d mka mks
Размер файла : 6022394534
Размер файла : 5,61 Гбайт
Размер файла : 6 Гбайт
Размер файла : 5,6 Гбайт
Размер файла : 5,61 Гбайт
Размер файла : 5,609 Гбайт
Продолжительность : 5187891
Продолжительность : 1 ч. 26 м.
Продолжительность : 1 ч. 26 м. 27 с. 891 мс.
Продолжительность : 1 ч. 26 м.
Продолжительность : 01:26:27.891
Общий поток : 9286848
Общий поток : 9287 Кбит/сек
Размер потока : 119840549
Размер потока : 114 Мбайт (2%)
Размер потока : 114 Мбайт
Размер потока : 114 Мбайт
Размер потока : 114 Мбайт
Размер потока : 114,3 Мбайт
Размер потока : 114 Мбайт (2%)
Пропорции потока : 0.01990
Заголовок : Amphibious 3D (2010) by Killbrain
Название фильма : Amphibious 3D (2010) by Killbrain
Дата кодирования : UTC 2010-02-22 21:41:31
Дата файла : UTC 2013-10-26 01:54:47.524
Дата файла (местная) : 2013-10-26 08:54:47.524
Дата изменения файла : UTC 2013-10-26 02:17:28.668
Дата изменения файла (местная) : 2013-10-26 09:17:28.668
Программа кодирования : mkvmerge v5.9.0 ('On The Loose') built on Dec 9 2012 15:37:01
Библиотека кодирования : libebml v1.3.0 + libmatroska v1.4.0
Библиотека кодирования : libebml v1.3.0 + libmatroska v1.4.0

Видео
Кол-во : 263
Кол-во потоков такого типа : 1
Тип потока : Video
Тип потока : Видео
Идентификатор типа потока : 0
StreamOrder : 0
Идентификатор : 1
Идентификатор : 1
Уникальный идентификатор : 17767204151389728158
Формат : AVC
Формат/Информация : Advanced Video Codec
Формат/Ссылка : http://developers.videolan.org/x264.html
Коммерческое название : AVC
Профиль формата : High@L4.1
Настройки формата : CABAC / 4 Ref Frames
Параметр CABAC формата : Yes
Параметр CABAC формата : Да
Параметр ReFrames формата : 4
Параметр ReFrames формата : 4 кадра
Интернет-тип носителя : video/H264
Идентификатор кодека : V_MPEG4/ISO/AVC
Идентификатор кодека/Ссылка : http://ffdshow-tryout.sourceforge.net/
Кодек : V_MPEG4/ISO/AVC
Кодек : AVC
Кодек/Семейство : AVC
Кодек/Информация : Advanced Video Codec
Кодек/Ссылка : http://ffdshow-tryout.sourceforge.net/
Профиль кодека : High@L4.1
Настройки кодека : CABAC / 4 Ref Frames
Параметр CABAC кодека : Yes
Codec_Settings_RefFrames : 4
Продолжительность : 5187896
Продолжительность : 1 ч. 26 м.
Продолжительность : 1 ч. 26 м. 27 с. 896 мс.
Продолжительность : 1 ч. 26 м.
Продолжительность : 01:26:27.896
Битрейт : 8200000
Битрейт : 8200 Кбит/сек
Ширина : 1920
Ширина : 1920 пикселей
Высота : 1080
Высота : 1080 пикселей
Пропорции пикселя : 1.000
Соотношение сторон : 1.778
Соотношение сторон : 16:9
Режим частоты кадров : CFR
Режим частоты кадров : Постоянный
Частота кадров : 23.976
Частота кадров : 23,976 кадра/сек
Счётчик кадров : 124385
Разрешение : 8
Разрешение : 8 бит
Колориметрия : 4:2:0
Цветовое пространство : YUV
Субдискретизация насыщенности : 4:2:0
Битовая глубина : 8
Битовая глубина : 8 бит
Тип развёртки : Progressive
Тип развёртки : Прогрессивная
Переплетение : PPF
Переплетение : Прогрессивная
Бит/(Пиксели*Кадры) : 0.165
Задержка : 0
Задержка : 00:00:00.000
Задержка в оригинале : Container
Задержка в оригинале : Контейнер
Размер потока : 5197000809
Размер потока : 4,84 Гбайт (86%)
Размер потока : 5 Гбайт
Размер потока : 4,8 Гбайт
Размер потока : 4,84 Гбайт
Размер потока : 4,840 Гбайт
Размер потока : 4,84 Гбайт (86%)
Пропорции потока : 0.86295
Заголовок : Amphibious 3D (2010)
Библиотека кодирования : x264 - core 128 r2216 198a7ea
Библиотека кодирования : x264 core 128 r2216 198a7ea
Библиотека кодирования/Имя : x264
Библиотека кодирования/Version : core 128 r2216 198a7ea
Настройки программы : cabac=1 / ref=4 / deblock=1:-3:-3 / analyse=0x3:0x113 / me=umh / subme=9 / psy=1 / psy_rd=1.00:0.15 / mixed_ref=1 / me_range=16 / chroma_me=1 / trellis=2 / 8x8dct=1 / cqm=0 / deadzone=21,11 / fast_pskip=1 / chroma_qp_offset=-3 / threads=3 / lookahead_threads=1 / sliced_threads=0 / nr=0 / decimate=0 / interlaced=0 / bluray_compat=0 / constrained_intra=0 / bframes=6 / b_pyramid=2 / b_adapt=2 / b_bias=0 / direct=3 / weightb=1 / open_gop=0 / weightp=2 / keyint=240 / keyint_min=23 / scenecut=40 / intra_refresh=0 / rc_lookahead=60 / rc=2pass / mbtree=0 / bitrate=8200 / ratetol=1.0 / qcomp=0.65 / qpmin=0 / qpmax=69 / qpstep=4 / cplxblur=20.0 / qblur=0.5 / vbv_maxrate=40000 / vbv_bufsize=40000 / nal_hrd=none / frame-packing=4 / ip_ratio=1.40 / pb_ratio=1.30 / aq=1:0.70
Язык : en
Язык : English
Язык : English
Язык : en
Язык : eng
Язык : en
Default : Yes
Default : Да
Forced : No
Forced : Нет

Аудио #1
Кол-во : 245
Кол-во потоков такого типа : 2
Тип потока : Audio
Тип потока : Аудио
Идентификатор типа потока : 0
Позиция идентификатора типа потока : 1
StreamOrder : 1
Идентификатор : 2
Идентификатор : 2
Уникальный идентификатор : 10096593385458609333
Формат : AC-3
Формат/Информация : Audio Coding 3
Коммерческое название : AC-3
Профиль формата : Dolby Digital
Расширение режима : CM (complete main)
Параметр Endianness формата : Big
Идентификатор кодека : A_AC3
Кодек : AC3
Кодек : AC3
Кодек/Семейство : AC3
Кодек/Информация : Dolby AC3
Профиль кодека : Dolby Digital
Продолжительность : 5187891
Продолжительность : 1 ч. 26 м.
Продолжительность : 1 ч. 26 м. 27 с. 891 мс.
Продолжительность : 1 ч. 26 м.
Продолжительность : 01:26:27.891
Вид битрейта : CBR
Вид битрейта : Постоянный
Битрейт : 448000
Битрейт : 448 Кбит/сек
Каналы : 2
Каналы : 2 канала
Расположение каналов : Front: L R
Расположение каналов : 2/0/0
Частота : 48000
Частота : 48,0 КГц
Количество образцов : 249018768
Разрешение : 16
Разрешение : 16 бит
Битовая глубина : 16
Битовая глубина : 16 бит
Метод сжатия : Lossy
Метод сжатия : С потерями
Задержка : 0
Задержка : 00:00:00.000
Задержка в оригинале : Container
Задержка в оригинале : Контейнер
Задержка видео : 0
Задержка видео : 0
Размер потока : 290521896
Размер потока : 277 Мбайт (5%)
Размер потока : 277 Мбайт
Размер потока : 277 Мбайт
Размер потока : 277 Мбайт
Размер потока : 277,1 Мбайт
Размер потока : 277 Мбайт (5%)
Пропорции потока : 0.04824
Заголовок : AC3 / 2.0 ch / 448 kbps / Русский MVO R5
Язык : ru
Язык : Russian
Язык : Russian
Язык : ru
Язык : rus
Язык : ru
Default : Yes
Default : Да
Forced : No
Forced : Нет
bsid : 6
dialnorm : -31
dialnorm/String : -31 dB
compr : -0.28
compr/String : -0.28 dB
dsurmod : 2
dsurmod/String : Dolby Surround encoded
acmod : 2
lfeon : 0
dialnorm_Average : -31
dialnorm_Average/String : -31 dB
dialnorm_Minimum : -31
dialnorm_Minimum/String : -31 dB
dialnorm_Maximum : -31
dialnorm_Maximum/String : -31 dB
dialnorm_Count : 2
compr_Average : -0.28
compr_Average/String : -0.28 dB
compr_Minimum : -0.28
compr_Minimum/String : -0.28 dB
compr_Maximum : -0.28
compr_Maximum/String : -0.28 dB
compr_Count : 2

Аудио #2
Кол-во : 234
Кол-во потоков такого типа : 2
Тип потока : Audio
Тип потока : Аудио
Идентификатор типа потока : 1
Позиция идентификатора типа потока : 2
StreamOrder : 2
Идентификатор : 3
Идентификатор : 3
Уникальный идентификатор : 7113723197848462253
Формат : AC-3
Формат/Информация : Audio Coding 3
Коммерческое название : AC-3
Расширение режима : CM (complete main)
Параметр Endianness формата : Big
Идентификатор кодека : A_AC3
Кодек : AC3
Кодек : AC3
Кодек/Семейство : AC3
Кодек/Информация : Dolby AC3
Продолжительность : 5187891
Продолжительность : 1 ч. 26 м.
Продолжительность : 1 ч. 26 м. 27 с. 891 мс.
Продолжительность : 1 ч. 26 м.
Продолжительность : 01:26:27.891
Вид битрейта : CBR
Вид битрейта : Постоянный
Битрейт : 640000
Битрейт : 640 Кбит/сек
Каналы : 6
Каналы : 6 каналов
Расположение каналов : Front: L C R, Side: L R, LFE
Расположение каналов : 3/2/0.1
Частота : 48000
Частота : 48,0 КГц
Количество образцов : 249018768
Разрешение : 16
Разрешение : 16 бит
Битовая глубина : 16
Битовая глубина : 16 бит
Метод сжатия : Lossy
Метод сжатия : С потерями
Задержка : 0
Задержка : 00:00:00.000
Задержка в оригинале : Container
Задержка в оригинале : Контейнер
Задержка видео : 0
Задержка видео : 0
Размер потока : 415031280
Размер потока : 396 Мбайт (7%)
Размер потока : 396 Мбайт
Размер потока : 396 Мбайт
Размер потока : 396 Мбайт
Размер потока : 395,8 Мбайт
Размер потока : 396 Мбайт (7%)
Пропорции потока : 0.06891
Заголовок : AC3 / 5.1 ch / 640 kbps / Английский original BD
Язык : en
Язык : English
Язык : English
Язык : en
Язык : eng
Язык : en
Default : No
Default : Нет
Forced : No
Forced : Нет
bsid : 8
dialnorm : -31
dialnorm/String : -31 dB
acmod : 7
lfeon : 1
dialnorm_Average : -31
dialnorm_Average/String : -31 dB
dialnorm_Minimum : -31
dialnorm_Minimum/String : -31 dB
dialnorm_Maximum : -31
dialnorm_Maximum/String : -31 dB
dialnorm_Count : 2

Меню
Кол-во : 88
Кол-во потоков такого типа : 1
Тип потока : Menu
Тип потока : Меню
Идентификатор типа потока : 0
Chapters_Pos_Begin : 75
Chapters_Pos_End : 88
00:00:00.000 : :Chapter 01
00:06:03.613 : :Chapter 02
00:15:07.406 : :Chapter 03
00:18:01.663 : :Chapter 04
00:24:36.808 : :Chapter 05
00:32:02.128 : :Chapter 06
00:40:23.921 : :Chapter 07
00:45:42.322 : :Chapter 08
00:55:05.927 : :Chapter 09
00:59:50.587 : :Chapter 10
01:05:51.572 : :Chapter 11
01:10:06.410 : :Chapter 12
01:22:15.930 : :Chapter 13



pb.wtf



Скачать Амфибия 3D через торрент http://s020.radikal.ru/i719/1310/b8/46280db995b4.jpg Скачать фильм Амфибия 3D через торрент бесплантно в хорошем качестве Описание: Морской биолог Скайлар Шейн нанимает лодку капитана Джека Боумана, чтобы найти образцы доисторических форм возле северного ... 8.9 10 26
Info! Золотая раздача, скачанное не засчитывается.
Торрент: Зарегистрирован [2013-10-26 02:38] · скачан: 478 раз
Статус: √ проверено
Размер: 5.61 GB
Как cкачать? Как скачать Амфибия 3D через торрент | UTorrent

28-11-2019 20:33  

Отключить всю рекламу на сайте

26-10-2013 02:44 Амфибия 3D Скачать торрент  

Спасибо что удовлетворили мою просьбу сделать обмен сидбонусов на мани!! Вот результат pb.wtf



26-10-2013 08:37 Амфибия 3D Скачать торрент  

GEKADOL
Скрины заливайте в виде превью плиз.pb.wtf



27-10-2013 01:34 Амфибия 3D Скачать торрент  

Vetаl писал(а):

GEKADOL
Скрины заливайте в виде превью плиз.

Шо загружаю слишком)) Ок учтёмс pb.wtf



    Дорогой пользователь! Огромная просьба, поблагодарите релизера, оцените раздачу и оставьте свои комментарий, если Вы скачали Амфибия 3D через торрент бесплатно! Внесите свою лепту в развитие PiratBit!
    Комментировать посты могут только пользователи прошедшие не сложную регистрацию
    Показать сообщения:    

    Амфибия 3D через торрент
    Скачать бесплатно Амфибия 3D
    Амфибия 3D скачать торрент
    Амфибия 3D смотреть онлайн
    Cкачать фильм Амфибия 3D бесплатно
    Амфибия 3D скачать торрент в хорошем качестве
    Амфибия 3D смотреть онлайн бесплатно в хорошем качестве


    Вы не можете начинать темы
    Вы не можете отвечать на сообщения
    Вы не можете редактировать свои сообщения
    Вы не можете удалять свои сообщения
    Вы не можете голосовать в опросах
    Вы не можете прикреплять файлы к сообщениям
    Вы можете скачивать файлы