Ссылка на приватное зеркало нашего сайта всего за 1$. Внимание количество ограничено!!!

2 сезон

iTunes

1 сезон

1

iTunes

iTunes

iTunes

1 сезон

RePack

30

ИГРА 18+

pack

ВАЖНО

!!Акция!!

Alien_RageХит недели

RePack

MK11
pack

Забери бонус

RePack

jed

!!Акция!!

Alien_Rage

RePack

fifa19

RePack

Assassins Creed: Odyssey

RePack

NEED FOR SPEED™ PAYBACK

4 сезон

9 сезон

Бесстыжие 9 сезон

Все сериалы

все сериалы на PB.wtf

RePack

FAR CRY 5
  

Улики / Evidence (Олатунде Осунсанми / Olatunde Osunsanmi) [2013, США, триллер, ужасы, BDRip 720p, Профессиональный (полное дублирование)[Лицензия] pb.wtf

Улики через торрент pb.wtf

Размер: 4.65 GB | Добавлен: 6 лет 11 мес. назад | Торрент скачан:390 раз
Скачать  

26-10-2013 13:44 Улики Скачать торрент  


Улики / Evidence

«Собери ужас по фрагментам»

  • Год выпуска:2013
  • Страна:США
  • Жанр:триллер, ужасы

  • Продолжительность: 01:33:57
  • Перевод:Профессиональный (полное дублирование)[Лицензия] + Любительский одноголосый (lord666)

  • Субтитры: Английский
    • Режиссер:Олатунде Осунсанми / Olatunde Osunsanmi

  • В ролях:Рада Митчелл (Detective Burquez), Нолан Фанк (Tyler Morris), Торри ДеВито (Leann), Дейл Дикки (Katrina Fleishman), Стивен Мойер (Detective Reese), Гарри Дж. Ленникс (Ben), Кэйтлин Стэйси (Rachel), Амл Амин (Officer Jenson), Барак Хардли (Gabe Wright), Джон Хеймс Ньютон (Lead Cop), Светлана Меткина (Vicki), Джеймс Райен (Tall Cop)
    • Описание:
      В автобусе, направлявшемся в Лас-Вегас, совершено жестокое убийство. На месте преступления - ни одного уцелевшего. Только несколько трупов и хаотичный набор мобильных телефонов, карманных видеокамер и других устройств, оставшихся от потерпевших. Детектив, которому поручено расследование, с помощью сохранившихся записей пытается восстановить цепь загадочных событий, приведших к трагедии.

    Мировая премьера:2 мая 2013
    • Качество:BDRip 720p [AXED] [profile-LQ]
    • Формат:MKV
    • Видео кодек: AVC
    • Аудио кодек: DTS /AC3
    • Видео: AVC, 1280x528 (2.40:1), 4999 kbps, 23,976 fps, 0,309 bpp
    • Аудио №1: русский / AC3 / 5.1 / 48 kHz / 384 kbps / 16 bit ||[Русский, Дубляж]
    • Аудио №2: русский / AC3 / 2.0 / 48 kHz / 192 kbps / 16 bit ||[Русский, VO lord666]
    • Аудио №3: английский / DTS / 5.1 / 48 kHz / 1510 kbps / 24 bit

    General
    Unique ID : 171833893073906682871145276146321728697 (0x8146010701C596EAB7BEE5F9755424B9)
    Complete name : D:ТорентыUliki.2013.D.BDRip.720p.B.mkv
    Format : Matroska
    Format version : Version 2
    File size : 4.65 GiB
    Duration : 1h 33mn
    Overall bit rate mode : Variable
    Overall bit rate : 7 088 Kbps
    Movie name : 1-Yliki.2013.D.BDRip.720p.NNM-CLUB
    Encoded date : UTC 2013-10-26 03:26:48
    Writing application : mkvmerge v2.9.9 ('Tutu') built on Nov 25 2009 21:13:32
    Writing library : libebml v0.7.9 + libmatroska v0.8.1

    Video
    ID : 1
    Format : AVC
    Format/Info : Advanced Video Codec
    Format profile : High@L4.1
    Format settings, CABAC : Yes
    Format settings, ReFrames : 3 frames
    Codec ID : V_MPEG4/ISO/AVC
    Duration : 1h 33mn
    Bit rate mode : Variable
    Bit rate : 4 999 Kbps
    Maximum bit rate : 40.0 Mbps
    Width : 1 280 pixels
    Height : 528 pixels
    Display aspect ratio : 2.40:1
    Frame rate : 23.976 fps
    Color space : YUV
    Chroma subsampling : 4:2:0
    Bit depth : 8 bits
    Scan type : Progressive
    Bits/(Pixel*Frame) : 0.309
    Stream size : 3.19 GiB (69%)
    Writing library : x264 core 116 r2074 2641b9e
    Encoding settings : cabac=1 / ref=4 / deblock=1:0:0 / analyse=0x3:0x113 / me=hex / subme=7 / psy=1 / psy_rd=1.00:0.00 / mixed_ref=1 / me_range=16 / chroma_me=1 / trellis=1 / 8x8dct=1 / cqm=0 / deadzone=21,11 / fast_pskip=1 / chroma_qp_offset=-2 / threads=3 / sliced_threads=0 / slices=4 / nr=0 / decimate=1 / interlaced=0 / bluray_compat=0 / constrained_intra=0 / bframes=3 / b_pyramid=1 / b_adapt=1 / b_bias=0 / direct=1 / weightb=1 / open_gop=0 / weightp=0 / keyint=24 / keyint_min=2 / scenecut=40 / intra_refresh=0 / rc_lookahead=24 / rc=2pass / mbtree=1 / bitrate=4999 / ratetol=1.0 / qcomp=0.60 / qpmin=10 / qpmax=51 / qpstep=4 / cplxblur=20.0 / qblur=0.5 / vbv_maxrate=40000 / vbv_bufsize=30000 / nal_hrd=vbr / ip_ratio=1.40 / aq=1:1.00
    Language : English
    Default : No
    Forced : No

    Audio #1
    ID : 2
    Format : AC-3
    Format/Info : Audio Coding 3
    Mode extension : CM (complete main)
    Codec ID : A_AC3
    Duration : 1h 33mn
    Bit rate mode : Constant
    Bit rate : 384 Kbps
    Channel(s) : 6 channels
    Channel positions : Front: L C R, Side: L R, LFE
    Sampling rate : 48.0 KHz
    Bit depth : 16 bits
    Compression mode : Lossy
    Stream size : 258 MiB (5%)
    Title : AC3.384Kbps (6ch) Russian (Дубляж)
    Language : Russian
    Default : Yes
    Forced : No

    Audio #2
    ID : 3
    Format : AC-3
    Format/Info : Audio Coding 3
    Mode extension : CM (complete main)
    Codec ID : A_AC3
    Duration : 1h 33mn
    Bit rate mode : Constant
    Bit rate : 192 Kbps
    Channel(s) : 2 channels
    Channel positions : Front: L R
    Sampling rate : 48.0 KHz
    Bit depth : 16 bits
    Compression mode : Lossy
    Stream size : 129 MiB (3%)
    Title : AC3.192.Kbps (2ch) Russian [lord666]
    Language : Russian
    Default : No
    Forced : No

    Audio #3
    ID : 4
    Format : DTS
    Format/Info : Digital Theater Systems
    Codec ID : A_DTS
    Duration : 1h 33mn
    Bit rate mode : Constant
    Bit rate : 1 510 Kbps
    Channel(s) : 6 channels
    Channel positions : Front: L C R, Side: L R, LFE
    Sampling rate : 48.0 KHz
    Bit depth : 24 bits
    Compression mode : Lossy
    Delay relative to video : 11ms
    Stream size : 1 015 MiB (21%)
    Title : DTS.1509.Kbps (6ch) English
    Language : English
    Default : No
    Forced : No

    Text
    ID : 5
    Format : UTF-8
    Codec ID : S_TEXT/UTF8
    Codec ID/Info : UTF-8 Plain Text
    Title : English (Full)
    Language : English
    Default : No
    Forced : No

    Menu
    00:00:00.000 : en:Evidence
    00:07:52.000 : en:This Could Be It
    00:14:25.000 : en:Viva Las Vegas
    00:23:23.000 : en:Help
    00:31:06.000 : en:First Vicitim
    00:40:31.000 : en:Night Vision
    00:47:59.000 : en:I Know Why
    00:54:39.000 : en:A Motive
    01:01:29.000 : en:Fuel House
    01:07:56.000 : en:Just A Game
    01:19:26.000 : en:Masterpiece
    01:28:40.000 : en:End Credits





    Трейлеры к фильмам [2013-2014]
    © Оформление by Vetal
    pb.wtf



  • Скачать Улики через торрент http://i58.fastpic.ru/big/2013/0922/31/4683bcd4960801b02604b79f43d30631.png Скачать фильм Улики через торрент бесплантно в хорошем качестве Описание:В автобусе, направлявшемся в Лас-Вегас, совершено жестокое убийство. На месте преступления - ни одного уцелевшего. Только ... 9.7 10 18
    Info! Золотая раздача, скачанное не засчитывается.
    Торрент: Зарегистрирован [2013-10-26 13:44] · скачан: 390 раз
    Статус: √ проверено
    Размер: 4.65 GB
    Как cкачать? Как скачать Улики через торрент | qTorrent

    % Раздел Тема Автор DL S | L
    Фильмы [HD 720p, 1080p] (Хороший звук DUB, MVO) [ 12.57 GB ] Тело как улика / Body Of Evidence [1993 BDRip 1080p by msltel] 2 x MVO 3 x DVO AVO msltel Скачать
    1 | 0
    Фильмы [HD 720p, 1080p] (Хороший звук DUB, MVO) [ 4.85 GB ] Тело как улика / Body Of Evidence [1993 BDRip 720p by msltel] 2 x MVO 3 x DVO AVO msltel Скачать
    1 | 0
    Фильмы (Blu-ray, BD-Remux, HDDVD) [ 18.23 GB ] Улики / Evidence [2013 BDRemux ()[] Ворон Скачать
    1 | 0
    Фильмы 2012 [ 2.18 GB ] Улики / Evidence [2012 BDRip-AVC] potroks Скачать
    1 | 0
    Фильмы 2013 [DVDrip, WEB-DLRip, HDrip] [ 1.44 GB ] Улики / Evidence [2013 BDRip] DUB + Original + Subs Liloo_Foofyga Скачать
    1 | 0
    Фильмы (DVD фильмы) [ 6.31 GB ] Улики / Evidence [2013 DVD9] R5 voovaz Скачать
    1 | 0
    Фильмы 2013 [DVDrip, WEB-DLRip, HDrip] [ 1.37 GB ] Улики / Evidence [2013 HDRip ] Seedtank Скачать
    1 | 0

    28-11-2019 20:33  

    Отключить всю рекламу на сайте

    26-10-2013 14:37 Улики Скачать торрент  

    Спасибо))) очень ждал)pb.wtf



    27-10-2013 08:58 Улики Скачать торрент  

    очередное амереканское фуфло с предсказуемым сюжетомpb.wtf



      Дорогой пользователь! Огромная просьба, поблагодарите релизера, оцените раздачу и оставьте свои комментарий, если Вы скачали Улики через торрент бесплатно! Внесите свою лепту в развитие PiratBit!
      Комментировать посты могут только пользователи прошедшие не сложную регистрацию
      Показать сообщения:    

      Улики через торрент
      Скачать бесплатно Улики
      Улики скачать торрент
      Улики смотреть онлайн
      Cкачать фильм Улики бесплатно
      Улики скачать торрент в хорошем качестве
      Улики смотреть онлайн бесплатно в хорошем качестве


      Вы не можете начинать темы
      Вы не можете отвечать на сообщения
      Вы не можете редактировать свои сообщения
      Вы не можете удалять свои сообщения
      Вы не можете голосовать в опросах
      Вы не можете прикреплять файлы к сообщениям
      Вы можете скачивать файлы