Ссылка на приватное зеркало нашего сайта всего за 1$. Внимание количество ограничено!!!

2 сезон

iTunes

1 сезон

1

iTunes

iTunes

iTunes

1 сезон

RePack

30

ИГРА 18+

pack

ВАЖНО

!!Акция!!

Alien_RageХит недели

RePack

MK11
pack

Забери бонус

RePack

jed

!!Акция!!

Alien_Rage

RePack

fifa19

RePack

Assassins Creed: Odyssey

RePack

NEED FOR SPEED™ PAYBACK

4 сезон

9 сезон

Бесстыжие 9 сезон

Все сериалы

все сериалы на PB.wtf

RePack

FAR CRY 5
  

Такси 2 / Taxi 2 (Жерар Кравчик) [2000 г., боевик, комедия, криминал, BDRip 1080p, Дубляж] pb.wtf

Скачать  

26-10-2013 15:14 Такси 2 Скачать торрент  

Такси 2 / Taxi 2
Год выпуска: 2000
Страна: Франция
Жанр: боевик, комедия, криминал,
Продолжительность: 01:28:25
Перевод: Дубляж+(А.Гаврилов)+Украинский+Оригинал
Субтитры: Русские

Режиссер: Жерар Кравчик

В ролях: Сами Насери, Фредерик Дифенталь, Марион Котийяр, Эмма Сьоберг, Бернар Фарси, Жан-Кристоф Буве, Фредерик Тирмон, Эдуард Монтут, Марк Фор, Хирата Харухико...,

Описание: Во Францию прибывает министр обороны Японии. Цель его визита — ознакомиться с французским опытом борьбы с терроризмом и подписать «контракт века» о взаимном сотрудничестве.

Неожиданно во время показательных выступлений французской полиции министра обороны похищает гангстерская группировка «Якудза», желающая сорвать заключение наиважнейшего контракта. Даниэль и Эмильен отправляются на поиски высокого гостя. В дело вступает уже хорошо знакомое нам такси…

Качество: BDRip 1080p
Формат: MKV
Видео кодек: H.264
Аудио кодек: AC3
Видео: (1920x816),11.100Кбит/с, 23.976 кадра/сек
Аудио#1: AC-3, 6 ch, 448 kbps (Rus) 48.0 KHz Дубляж
Аудио#2: AC-3, 6 ch, 448 kbps (Rus) 48.0 KHz (А.Гаврилов)
Аудио#3: AC-3, 6 ch, 384kbps (UKR) 48.0 KHz Украинский
Аудио#4: AC-3, 6 ch, 448 kbps (French) 48.0 KHz Оригинал
Тип потока: Видео
Длительность: 01:28:25
Кодек: AVC
Кодек/Профиль: High@L4.1
Кодек/ID: V_MPEG4/ISO/AVC
Кодек/CABAC: Yes
Кодек/ReFrames: 4 frames
Размеры изображения: 1920 x 816 (2.35:1)
Частота кадров: 24.000 fps
Размер потока: 6.72 GiB (85%)
Битрейт: 11.1 Mbps
Битрейт/макс: 38.0 Mbps
Битрейт/тип: VBR
Библиотека кодирования: x264 core 130 r2273 b3065e6
Цветовое пространство: YUV
Тип развёртки: Progressive
Глубина: 8 bits
Настройки кодирования: cabac=1 / ref=4 / deblock=1:-1:-1 / analyse=0x3:0x133 / me=umh / subme=10 / psy=1 / psy_rd=1.00:0.00 / mixed_ref=1 / me_range=32 / chroma_me=1 / trellis=2 / 8x8dct=1 / cqm=0 / deadzone=21,11 / fast_pskip=0 / chroma_qp_offset=-2 / threads=6 / lookahead_threads=1 / sliced_threads=0 / nr=0 / decimate=1 / interlaced=0 / bluray_compat=0 / constrained_intra=0 / bframes=10 / b_pyramid=2 / b_adapt=2 / b_bias=30 / direct=1 / weightb=1 / open_gop=0 / weightp=2 / keyint=240 / keyint_min=24 / scenecut=40 / intra_refresh=0 / rc_lookahead=40 / rc=2pass / mbtree=0 / bitrate=11150 / ratetol=2.0 / qcomp=1.00 / qpmin=0 / qpmax=51 / qpstep=4 / cplxblur=20.0 / qblur=0.5 / vbv_maxrate=38000 / vbv_bufsize=30000 / nal_hrd=vbr / ip_ratio=1.40 / pb_ratio=1.30 / aq=1:1.00
:
Тип потока: Звук #1
Язык: Russian
Название: Дубляж
Длительность: 01:28:25.084
Кодек: AC-3
Кодек/ID: A_AC3
Частота дискретизации: 48.0 KHz
Каналов: 6 channels
Битрейт: 448 Kbps
Битрейт/тип: Constant
Размер потока: 283 MiB (3%)
Глубина: 16 bits
Метод сжатия: Lossy
:
Тип потока: Звук #2
Язык: Russian
Название: AVO - Гаврилов
Длительность: 01:28:25.084
Кодек: AC-3
Кодек/ID: A_AC3
Частота дискретизации: 48.0 KHz
Каналов: 6 channels
Битрейт: 448 Kbps
Битрейт/тип: Constant
Размер потока: 283 MiB (3%)
Глубина: 16 bits
Метод сжатия: Lossy
:
Тип потока: Звук #3
Язык: Ukrainian
Название: MVO - Novuj.kanal
Длительность: 01:28:25.084
Кодек: AC-3
Кодек/ID: A_AC3
Частота дискретизации: 48.0 KHz
Каналов: 6 channels
Битрейт: 384 Kbps
Битрейт/тип: Constant
Размер потока: 243 MiB (3%)
Глубина: 16 bits
Метод сжатия: Lossy
:
Тип потока: Звук #4
Язык: French
Длительность: 01:28:25.084
Кодек: AC-3
Кодек/ID: A_AC3
Частота дискретизации: 48.0 KHz
Каналов: 6 channels
Битрейт: 448 Kbps
Битрейт/тип: Constant
Размер потока: 283 MiB (3%)
Глубина: 16 bits
Метод сжатия: Lossy
:
Тип потока: Субтитры #1
Язык: Russian
Формат: UTF-8
Формат/подробно: UTF-8 Plain Text
pb.wtf



Торрент не зареган: Не зарегистрирован ||
Добавлен: 2013-10-26 15:12
Скачано: 46 раз  [ Список скачавших ]
% Раздел Тема Автор DL S | L
Классика зарубежного кино [ 3.85 GB ] Такси прицеп и коррида / Taxi Roulotte et Corrida [1958 BDRip 720p by msltel] 2 x MVO msltel Скачать
1 | 0
Классика зарубежного кино [ 9.5 GB ] Такси прицеп и коррида / Taxi Roulotte et Corrida [1958 BDRip 1080p by msltel] 2 x MVO msltel Скачать
1 | 0
Фильмы до 2000 г. [ 1.37 GB ] Такси 2 / Taxi 2 [2000 DVDRip ] Бумер Скачать
1 | 0
Фильмы до 2000 г. [ 743 MB ] Такси 2 / Taxi 2 [2000 BDRip ] Бумер Скачать
1 | 0
Неофициальные cаундтреки к зарубежным фильмам [ 59 MB ] Такси 2/ Taxi 2 2000 / MP3 / VBR 128-192 kbps / Soundtrack steepman1 Скачать
1 | 0
Фильмы до 2000 г. [ 1.7 GB ] Такси 2 / Taxi 2 [2000 BDRip-AVC] jb_alex Скачать
1 | 0
Лесбиянки [ 699 MB ] Такси 2 / Taxi 2 [2011 All Girl DVDRip] smaster Скачать
1 | 0


Последний раз редактировалось: Бумер (2013-10-26 15:27), всего редактировалось 4 раз(а)

28-11-2019 20:33  

Отключить всю рекламу на сайте

26-10-2013 15:17 Такси 2 Скачать торрент  

ГАЙК
Правила раздела Фильмы. Как правильно оформить раздачу фильма

Цитата:

2.1 Размер обложки не должен превышать 700*700 пикселей (небольшие отклонения от нормы возможны на усмотрение модератора).

pb.wtf



26-10-2013 16:58 Такси 2 Скачать торрент  

Плюс еще добавь скриншотов.pb.wtf



05-11-2013 17:52 Такси 2 Скачать торрент  

Друже подкинь скорости на 1 и 2 такси! 5 дней уже не могу скачать!pb.wtf



    Дорогой пользователь! Огромная просьба, поблагодарите релизера, оцените раздачу и оставьте свои комментарий, если Вы скачали Такси 2 через торрент бесплатно! Внесите свою лепту в развитие PiratBit!
    Комментировать посты могут только пользователи прошедшие не сложную регистрацию
    Показать сообщения:    

    Такси 2 через торрент
    Скачать бесплатно Такси 2
    Такси 2 скачать торрент
    Такси 2 смотреть онлайн
    Cкачать фильм Такси 2 бесплатно
    Такси 2 скачать торрент в хорошем качестве
    Такси 2 смотреть онлайн бесплатно в хорошем качестве


    Вы не можете начинать темы
    Вы не можете отвечать на сообщения
    Вы не можете редактировать свои сообщения
    Вы не можете удалять свои сообщения
    Вы не можете голосовать в опросах
    Вы не можете прикреплять файлы к сообщениям
    Вы можете скачивать файлы