2 сезон

iTunes

1 сезон

1

iTunes

iTunes

iTunes

1 сезон

RePack

30

ИГРА 18+

pack

ВАЖНО

!!Акция!!

Alien_RageХит недели

RePack

MK11
pack

Забери бонус

RePack

jed

!!Акция!!

Alien_Rage

RePack

fifa19

RePack

Assassins Creed: Odyssey

RePack

NEED FOR SPEED™ PAYBACK

4 сезон

9 сезон

Бесстыжие 9 сезон

Все сериалы

все сериалы на PB.wtf

RePack

FAR CRY 5
  

Ад каннибалов / Cannibal Holocaust (Руджеро Деодато) [1979 г., ужасы, драма, приключения, BDRip 720] pb.wtf

Ад каннибалов через торрент pb.wtf

Размер: 4.74 GB | Добавлен: 7 лет назад | Торрент скачан:221 раз
Скачать  

27-10-2013 09:18 Ад каннибалов Скачать торрент  

Ад каннибалов / Cannibal Holocaust
Год выпуска: 1979
Страна: Италия
Жанр: Ужасы, драма, приключения,
Продолжительность: 01:36:02
Перевод: Авторский (одноголосый) [Сергей Визгунов, Андрей Гаврилов, Владимир Штейн]
Субтитры: отсутствуют

Режиссер: Руджеро Деодато
Продюссер: Франко Ди Нунцио, Франко Паладжи
Сценарий: Джанфранко Клеричи

Бюджет: $100 000
Премьера в мире: 7 февраля 1980




В ролях: Роберт Керман, Франческа Кьярди, Перри Пирканен, Лука Барбарески, Сальваторе Базиле, Рикардо Фуэнтес, Карл Гэбриел Йорк, Паоло Паолони, Лионелло Пио Ди Савойя, Луиджина Рокки,

Описание: Несколько молодых репортеров отправляются в дебри Амазонки, чтобы снять сенсационный фильм о последних людоедах, оставшихся на Земле. Попав туда, где не бывал еще ни один европеец, они бесследно исчезают. Что с ними случилось? Какие ужасные секреты хранит амазонская сельва?

Качество: BDRip 720p
Формат: MKV
Видео кодек: AVC
Аудио кодек: AC3
Видео: AVC(H264), 1280x688 (1.860) at 23.976 fps, 6290 kbps
Аудио#1: AC-3, at 2 ch, 48 kHz, 192 kbps, Russian [Сергей Визгунов]
Аудио#2: AC-3, at 2 ch, 48 kHz, 192 kbps, Russian [Андрей Гаврилов]
Аудио#3: AC-3, at 2 ch, 48 kHz, 192 kbps, Russian [Владимир Штейн]
Аудио#4: AC-3, at 2 ch, 48 kHz, 192 kbps, English
скриншот   скриншот   скриншот   скриншот   скриншот   скриншот   скриншот   скриншот  

Общее
Уникальный идентификатор : 253029140202491748348630866746001221165 (0xBE5BA3C9661F0B9FA73F3F346A72662D)
Полное имя : F:ЗакачкиAd.Kannibalov.1980.BDRip.720p.mkv
Формат : Matroska
Версия формата : Version 4 / Version 2
Размер файла : 4,74 Гбайт
Продолжительность : 1 ч. 36 м.
Общий поток : 7061 Кбит/сек
Дата кодирования : UTC 2013-10-27 06:36:23
Программа кодирования : mkvmerge v6.3.0 ('You can't stop me!') built on Jun 28 2013 20:09:41
Библиотека кодирования : libebml v1.3.0 + libmatroska v1.4.0

Видео
Идентификатор : 1
Формат : AVC
Формат/Информация : Advanced Video Codec
Профиль формата : High@L5.0
Параметр CABAC формата : Да
Параметр ReFrames формата : 11 кадров
Идентификатор кодека : V_MPEG4/ISO/AVC
Продолжительность : 1 ч. 36 м.
Битрейт : 6290 Кбит/сек
Ширина : 1280 пикселей
Высота : 688 пикселей
Соотношение сторон : 1,85:1
Режим частоты кадров : Постоянный
Частота кадров : 23,976 кадра/сек
Цветовое пространство : YUV
Субдискретизация насыщенности : 4:2:0
Битовая глубина : 8 бит
Тип развёртки : Прогрессивная
Бит/(Пиксели*Кадры) : 0.298
Размер потока : 4,13 Гбайт (87%)
Библиотека кодирования : x264 core 125 r2208 d9d2288
Настройки программы : cabac=1 / ref=11 / deblock=1:-2:-1 / analyse=0x3:0x133 / me=umh / subme=10 / psy=1 / psy_rd=1.00:0.20 / mixed_ref=1 / me_range=24 / chroma_me=1 / trellis=2 / 8x8dct=1 / cqm=0 / deadzone=21,11 / fast_pskip=1 / chroma_qp_offset=-3 / threads=12 / lookahead_threads=2 / sliced_threads=0 / nr=0 / decimate=1 / interlaced=0 / bluray_compat=0 / constrained_intra=0 / bframes=4 / b_pyramid=2 / b_adapt=2 / b_bias=0 / direct=3 / weightb=1 / open_gop=0 / weightp=2 / keyint=250 / keyint_min=23 / scenecut=40 / intra_refresh=0 / rc_lookahead=60 / rc=2pass / mbtree=1 / bitrate=6290 / ratetol=1.0 / qcomp=0.60 / qpmin=0 / qpmax=69 / qpstep=4 / cplxblur=20.0 / qblur=0.5 / ip_ratio=1.40 / aq=1:1.00
Default : Да
Forced : Нет

Аудио #1
Идентификатор : 2
Формат : AC-3
Формат/Информация : Audio Coding 3
Расширение режима : CM (complete main)
Параметр Endianness формата : Big
Идентификатор кодека : A_AC3
Продолжительность : 1 ч. 36 м.
Вид битрейта : Постоянный
Битрейт : 192 Кбит/сек
Каналы : 2 канала
Расположение каналов : Front: L R
Частота : 48,0 КГц
Битовая глубина : 16 бит
Метод сжатия : С потерями
Размер потока : 132 Мбайт (3%)
Заголовок : Russian (Сергей Визгунов)
Default : Да
Forced : Нет

Аудио #2
Идентификатор : 3
Формат : AC-3
Формат/Информация : Audio Coding 3
Расширение режима : CM (complete main)
Параметр Endianness формата : Big
Идентификатор кодека : A_AC3
Продолжительность : 1 ч. 36 м.
Вид битрейта : Постоянный
Битрейт : 192 Кбит/сек
Каналы : 2 канала
Расположение каналов : Front: L R
Частота : 48,0 КГц
Битовая глубина : 16 бит
Метод сжатия : С потерями
Размер потока : 132 Мбайт (3%)
Заголовок : Russian ( Андрей Гаврилов)
Default : Нет
Forced : Нет

Аудио #3
Идентификатор : 4
Формат : AC-3
Формат/Информация : Audio Coding 3
Расширение режима : CM (complete main)
Параметр Endianness формата : Big
Идентификатор кодека : A_AC3
Продолжительность : 1 ч. 36 м.
Вид битрейта : Постоянный
Битрейт : 192 Кбит/сек
Каналы : 2 канала
Расположение каналов : Front: L R
Частота : 48,0 КГц
Битовая глубина : 16 бит
Метод сжатия : С потерями
Размер потока : 132 Мбайт (3%)
Заголовок : Russian (Владимир Штейн)
Default : Нет
Forced : Нет

Аудио #4
Идентификатор : 5
Формат : AC-3
Формат/Информация : Audio Coding 3
Расширение режима : CM (complete main)
Параметр Endianness формата : Big
Идентификатор кодека : A_AC3
Продолжительность : 1 ч. 36 м.
Вид битрейта : Постоянный
Битрейт : 192 Кбит/сек
Каналы : 2 канала
Расположение каналов : Front: L R
Частота : 48,0 КГц
Битовая глубина : 16 бит
Метод сжатия : С потерями
Размер потока : 132 Мбайт (3%)
Заголовок : English
Default : Нет
Forced : Нет


Ад каннибалов скачать торрент


pb.wtf



Скачать Ад каннибалов через торрент http://s6.uploads.ru/SNZRL.jpg Скачать фильм Ад каннибалов через торрент бесплантно в хорошем качестве Описание: Несколько молодых репортеров отправляются в дебри Амазонки, чтобы снять сенсационный фильм о последних людоедах, оставшихся на ... 9.8 10 12
Info! Золотая раздача, скачанное не засчитывается.
Торрент: Зарегистрирован [2013-10-27 09:18] · скачан: 221 раз
Статус: √ проверено
Размер: 4.74 GB
Как cкачать? Как скачать Ад каннибалов через торрент | qTorrent

% Раздел Тема Автор DL S | L
Фильмы до 2000 г. [ 1.45 GB ] Ад каннибалов / Cannibal Holocaust [1980 BDRip] | Sherif Скачать
1 | 0
Фильмы [HD 720p, 1080p] (Хороший звук DUB, MVO) [ 17.08 GB ] Ад каннибалов / Cannibal Holocaust [1980 BDRip 1080p by msltel] MVO 3 x AVO msltel Скачать
1 | 0
Фильмы [HD 720p, 1080p] (Хороший звук DUB, MVO) [ 6.99 GB ] Ад каннибалов / Cannibal Holocaust [1980 BDRip 720p by msltel] MVO 3 x AVO msltel Скачать
1 | 0
Фильмы до 2000 г. [ 4.49 GB ] Ад каннибалов / Cannibal Holocaust [1980 BDRip AVC by msltel] MVO 3 x AVO msltel Скачать
1 | 0
Фильмы до 2000 г. [ 1.6 GB ] Ад каннибалов / Cannibal Holocaust [1980 HDRip] кэп Скачать
1 | 0

28-11-2019 20:33  

Отключить всю рекламу на сайте

27-10-2013 09:35 Ад каннибалов Скачать торрент  

Причём тут Гоблин?!pb.wtf



27-10-2013 10:40 Ад каннибалов Скачать торрент  

Помню,поразил фильм своей натуралистичностью.Как будто документальные кадры,полное погружение.Спасибо.Надо ещё раз нервишки пощекотать себе. pb.wtf



27-10-2013 17:15 Ад каннибалов Скачать торрент  

качество редкое даже сидировать такое взападло pb.wtf



28-10-2013 08:37 Ад каннибалов Скачать торрент  

77vetal писал(а):

качество редкое даже сидировать такое взападло

Найди лучшего качества и залей (хотя бы одну раздачу) а уж потом критикуй :threaten:pb.wtf



28-10-2013 11:28 Ад каннибалов Скачать торрент  

DJERG писал(а):

77vetal писал(а):

качество редкое даже сидировать такое взападло

Найди лучшего качества и залей (хотя бы одну раздачу) а уж потом критикуй :threaten

Не умею ни заливать ни оформлять,но есть вкачестве именно 720 pb.wtf



    Дорогой пользователь! Огромная просьба, поблагодарите релизера, оцените раздачу и оставьте свои комментарий, если Вы скачали Ад каннибалов через торрент бесплатно! Внесите свою лепту в развитие PiratBit!
    Комментировать посты могут только пользователи прошедшие не сложную регистрацию
    Показать сообщения:    

    Ад каннибалов через торрент
    Скачать бесплатно Ад каннибалов
    Ад каннибалов скачать торрент
    Ад каннибалов смотреть онлайн
    Cкачать фильм Ад каннибалов бесплатно
    Ад каннибалов скачать торрент в хорошем качестве
    Ад каннибалов смотреть онлайн бесплатно в хорошем качестве


    Вы не можете начинать темы
    Вы не можете отвечать на сообщения
    Вы не можете редактировать свои сообщения
    Вы не можете удалять свои сообщения
    Вы не можете голосовать в опросах
    Вы не можете прикреплять файлы к сообщениям
    Вы можете скачивать файлы