новый адрес
Ссылка на приватное зеркало всего за 1$. Внимание количество ограничено!!!

iTunes

1+1

iTunes

мы

WEB-DL

1

iTunes

Чернобыль

iTunes

Ральф против интернета

Лицензия

ПШазам

Лицензия

Оно 2

Лицензия

30
pack

Вам бонус

ВАЖНО

!!Акция!!

Alien_RageХит недели

RePack

Resident Evil 21

ИГРА 18+

pack

RePack

jed

!!Акция!!

Alien_Rage

RePack

fifa19

RePack

Assassins Creed: Odyssey

RePack

NEED FOR SPEED™ PAYBACK

3 сезон

9 сезон

Бесстыжие 9 сезон

Все сериалы

все сериалы на PB.wtf

RePack

FAR CRY 5
Ребята, катастрофически не хватает 1900р. для оплаты серверов за Октябрь (всвязи с блокировками трафик упал в 3 раза), 1-2р., выручайте.
  

Девушка и смерть / Het Meisje en de Dood / The Girl and Death (Йос Стеллинг / Jos Stelling) [2012, драма, DVD9] R5 pb.wtf

Девушка и смерть через торрент pb.wtf

Размер: 5.93 GB | Добавлен: 6 лет 1 мес. назад | Торрент скачан:75 раз
Скачать  

29-10-2013 08:28 Девушка и смерть Скачать торрент  


Девушка и смерть / Het Meisje en de Dood / The Girl and Death
Страна: Россия, Нидерланды, Германия
Студия: Algemene Vereniging Radio Omroep (AVRO), Jos Stelling Filmprodukties BV, Ma.ja.de. Fiction, Твинди
Жанр: драма
Год выпуска: 2012
Мировая премьера: 29 сентября 2012
Российская премьера: 16 мая 2013
Дата выхода DVD: 29 октября 2013
Продолжительность: 02:02:17
Перевод: Оригинал [Лицензия]
Cубтитры: русские, английские
Оригинальная аудиодорожка: русский
Режиссер: Йос Стеллинг / Jos Stelling
В ролях: Сильвия Хукс, Леонид Бичевин, Сергей Маковецкий, Рената Литвинова, Дитер Халлерворден, Максим Ковалевский, Джим ван дер Вауде, Анри Гарсен, Ева-Мария Курц, Светлана Светличная
Описание: Николай возвращается в заброшенный отель, где пятьдесят лет назад он встретил свою единственную любовь. Охваченный воспоминаниями, он заново переживает трагическую историю своей юности, являясь одновременно рассказчиком и героем повествования. Действие разворачивается в трех временных пластах — в конце XIX века (времена юности героя), в пятидесятые годы XX века и в наши дни
Бонусы: нет

Релиз группы:
Качество: DVD9 R5
Формат: DVD-Video
Видео кодек: MPEG2
Аудио кодек: AC3
Видео: PAL 16:9 (720x576(0.612)) MPEG Video, 25,000 кадр/сек, 6349 Кбит/сек
Аудио: Russian (Dolby AC3, 6 ch) 448 Кбит/сек, 48,0 КГц



Title: Devushka.i.smert.2012.DVD9
Size: 5.93 Gb ( 6 217 616,00 KBytes ) - DVD-9
Enabled regions: 1, 2, 3, 4, 5, 6, 7, 8

VTS_01 :
Play Length: 00:00:15
Video: PAL 4:3 (720x576) VBR
Audio:
Not specified (Dolby AC3, 2 ch)

VTS_02 :
Play Length: 00:00:08
Video: PAL 16:9 (720x576) VBR, Auto Letterboxed
Audio:
Not specified (Dolby AC3, 2 ch)

VTS_03 :
Play Length: 00:00:01
Video: PAL 16:9 (720x576) VBR, Auto Letterboxed
Audio:
Russian (Dolby AC3, 2 ch)
Subtitles:
Russian
English

VTS_04 :
Play Length: 02:02:17
Video: PAL 16:9 (720x576) VBR, Auto Letterboxed
Audio:
Russian (Dolby AC3, 6 ch)
Subtitles:
Russian
English

VTS_05 :
Play Length: 00:00:01
Video: PAL 16:9 (720x576) VBR, Auto Letterboxed
Audio:
Russian (Dolby AC3, 2 ch)
Subtitles:
Russian
English

* Menus Information *

VIDEO_TS Menu
Video:
PAL 16:9 (720x576) VBR
Auto Pan&Scan
Audio:
Not specified (LinearPCM, 2 ch)
English Language Unit :
Title Menu

VTS_01 Menu
Video:
PAL 16:9 (720x576) VBR
Auto Letterboxed
Audio:
Not specified (Dolby AC3, 2 ch)
English Language Unit :
Root Menu
Chapter (PTT) Menu

VTS_02 Menu
Video:
NTSC 4:3 (720x480) VBR
Auto Pan&Scan, Auto Letterboxed
English Language Unit :
Root Menu
Chapter (PTT) Menu

VTS_03 Menu
Video:
NTSC 4:3 (720x480) VBR
Auto Pan&Scan, Auto Letterboxed
English Language Unit :
Root Menu
Chapter (PTT) Menu

VTS_04 Menu
Video:
NTSC 4:3 (720x480) VBR
Auto Pan&Scan, Auto Letterboxed
English Language Unit :
Root Menu
Chapter (PTT) Menu

VTS_05 Menu
Video:
NTSC 4:3 (720x480) VBR
Auto Pan&Scan, Auto Letterboxed
English Language Unit :
Root Menu
Chapter (PTT) Menu
Общее
Полное имя : F:Новинки 2013Devushka.i.smert.2012.DVD9VIDEO_TSVTS_04_2.VOB
Формат : MPEG-PS
Размер файла : 1024 Мбайт
Продолжительность : 20 м.
Режим общего битрейта : Переменный
Общий поток : 6935 Кбит/сек

Видео
Идентификатор : 224 (0xE0)
Формат : MPEG Video
Версия формата : Version 2
Профиль формата : Main@Main
Параметр BVOP формата : Да
Параметр матрицы формата : По умолчанию
Параметр GOP формата : M=3, N=12
Продолжительность : 20 м.
Вид битрейта : Переменный
Битрейт : 6349 Кбит/сек
Максимальный битрейт : 8200 Кбит/сек
Ширина : 720 пикселей
Высота : 576 пикселей
Соотношение сторон : 16:9
Частота кадров : 25,000 кадров/сек
Стандарт вещания : PAL
Цветовое пространство : YUV
Субдискретизация насыщенности : 4:2:0
Битовая глубина : 8 бит
Тип развёртки : Прогрессивная
Метод сжатия : С потерями
Бит/(Пиксели*Кадры) : 0.612
Временной код первого кадра : 00:21:19:15
Оригинал временного кода : Group of pictures header
Размер потока : 937 Мбайт (92%)

Аудио
Идентификатор : 189 (0xBD)-128 (0x80)
Формат : AC-3
Формат/Информация : Audio Coding 3
Расширение режима : CM (complete main)
Параметр Endianness формата : Big
Режим смешивания : DVD-Video
Продолжительность : 20 м.
Вид битрейта : Постоянный
Битрейт : 448 Кбит/сек
Каналы : 6 каналов
Расположение каналов : Front: L C R, Side: L R, LFE
Частота : 48,0 КГц
Битовая глубина : 16 бит
Метод сжатия : С потерями
Задержка видео : -672 мс.
Размер потока : 66,1 Мбайт (6%)

Текст #1
Идентификатор : 189 (0xBD)-34 (0x22)
Формат : RLE
Формат/Информация : Run-length encoding
Режим смешивания : DVD-Video
Задержка видео : 600 мс.

Текст #2
Идентификатор : 189 (0xBD)-35 (0x23)
Формат : RLE
Формат/Информация : Run-length encoding
Режим смешивания : DVD-Video
Задержка видео : 600 мс.










pb.wtf



Скачать Девушка и смерть через торрент http://i60.fastpic.ru/big/2013/1027/6f/5f5bb4a555f14b878df4a2fa7e0fcf6f.png Скачать фильм Девушка и смерть через торрент бесплантно в хорошем качестве Описание: Николай возвращается в заброшенный отель, где пятьдесят лет назад он встретил свою единственную любовь. Охваченный ... 9.5 10 4
Info! Золотая раздача, скачанное не засчитывается.
Торрент: Зарегистрирован [2013-10-29 08:28] · скачан: 75 раз
Статус: √ проверено
Размер: 5.93 GB
Как cкачать? Как скачать Девушка и смерть через торрент | qTorrent

28-11-2019 20:33  

Отключить всю рекламу на сайте

    Дорогой пользователь! Огромная просьба, поблагодарите релизера, оцените раздачу и оставьте свои комментарий, если Вы скачали Девушка и смерть через торрент бесплатно! Внесите свою лепту в развитие PiratBit!
    Комментировать посты могут только пользователи прошедшие не сложную регистрацию
    Показать сообщения:    

    Девушка и смерть через торрент
    Скачать бесплатно Девушка и смерть
    Девушка и смерть скачать торрент
    Девушка и смерть смотреть онлайн
    Cкачать фильм Девушка и смерть бесплатно
    Девушка и смерть скачать торрент в хорошем качестве
    Девушка и смерть смотреть онлайн бесплатно в хорошем качестве


    Вы не можете начинать темы
    Вы не можете отвечать на сообщения
    Вы не можете редактировать свои сообщения
    Вы не можете удалять свои сообщения
    Вы не можете голосовать в опросах
    Вы не можете прикреплять файлы к сообщениям
    Вы можете скачивать файлы