1 сезон

1 сезон

iTunes

1

iTunes

Кинопоиск HD

iTunes

13

1 сезон

RePack

30

Deluxe

ВАЖНО

ИГРА 18+

pack

RePack

MK11
pack

Легкие деньги

RePack

jed

RePack

fifa19

RePack

RDR2

RePack

NEED FOR SPEED™ PAYBACK

4 сезон

9 сезон

Бесстыжие 9 сезон

Все сериалы

все сериалы на PB.wtf

RePack

FAR CRY 5
  
Magnet ссылка

Лагерь / Boot Camp (Кристиан Дюге) [2008 г., триллер, драма, DVDRip, Профессиональный многоголосый] pb.wtf

Лагерь через торрент pb.wtf

Размер: 2.05 GB | Добавлен: 7 лет 6 мес. назад | Торрент скачан:241 раз
Скачать  

29-10-2013 12:25 Лагерь Скачать торрент  

Лагерь / Boot Camp
Год выпуска: 2008
Страна: Канада, США
Жанр: триллер, драма,
Продолжительность: 01:35:04
Перевод: Профессиональный многоголосый
Субтитры: отсутствуют

Режиссер: Кристиан Дюге
Продюссер: Кристиан Дюге, Майкл Фрислев, Чад Оакес
Сценарий: Агата Доминик, Джон Кокс

Бюджет: $14 000 000
Премьера в мире: 18 апреля 2008

зрителям, достигшим 16 лет



В ролях: Мила Кунис, Грегори Смит, Петер Стормаре, Реджин Нэи, Алехандро Рэй, Кристофер Жако, Тай Рунян, Мэттью Смэлли, Коллин Реннисон, Барбара Гейтс Уилсон,

Описание: Группу «трудных» подростков отправляют в исправительный лагерь на остров Фиджи. В лагере под названием «Спокойствие» царит жесточайшая дисциплина, которую местные надсмотрщики достигают жесткой муштрой и суровыми наказаниями. Очень скоро новоприбывшим становится ясно: они попали в самый настоящий ад! Попавшие сюда, не думают о будущем и забывают о прошлом, мечтая только об одном — выжить!

Качество: DVDRip
Формат: AVI
Видео кодек: XviD
Аудио кодек: AC3
Видео: 720x400 (1.80:1), 25 fps, XviD build 50 ~2497 kbps avg, 0.35 bit/pixel
Аудио#1: Russian: 48 kHz, AC3 Dolby Digital, 3/2 (L,C,R,l,r) + LFE ch, ~384 kbps
Аудио#2: English: 48 kHz, AC3 Dolby Digital, 2/0 (L,R) ch, ~192 kbps
скриншот   скриншот   скриншот   скриншот   скриншот   скриншот   скриншот   скриншот  

Общее
Полное имя : F:ЗакачкиLagerj'.2008.DVDRip.avi
Формат : AVI
Формат/Информация : Audio Video Interleave
Профиль формата : OpenDML
Размер файла : 2,05 Гбайт
Продолжительность : 1 ч. 35 м.
Общий поток : 3090 Кбит/сек
Программа кодирования : VirtualDubModRus 1.5.10.2 (build 2542/release)
Библиотека кодирования : VirtualDubMod build 2542/release

Видео
Идентификатор : 0
Формат : MPEG-4 Visual
Профиль формата : Advanced Simple@L5
Параметр BVOP формата : 2
Параметр QPel формата : Нет
Параметр GMC формата : Без точки перехода
Параметр матрицы формата : Default (H.263)
Идентификатор кодека : XVID
Идентификатор кодека/Подсказка : XviD
Продолжительность : 1 ч. 35 м.
Битрейт : 2495 Кбит/сек
Ширина : 720 пикселей
Высота : 400 пикселей
Соотношение сторон : 16:9
Частота кадров : 25,000 кадров/сек
Цветовое пространство : YUV
Субдискретизация насыщенности : 4:2:0
Битовая глубина : 8 бит
Тип развёртки : Прогрессивная
Метод сжатия : С потерями
Бит/(Пиксели*Кадры) : 0.347
Размер потока : 1,66 Гбайт (81%)
Библиотека кодирования : XviD 1.2.1 (UTC 2008-12-04)

Аудио #1
Идентификатор : 1
Формат : AC-3
Формат/Информация : Audio Coding 3
Расширение режима : CM (complete main)
Параметр Endianness формата : Big
Идентификатор кодека : 2000
Продолжительность : 1 ч. 35 м.
Вид битрейта : Постоянный
Битрейт : 384 Кбит/сек
Каналы : 6 каналов
Расположение каналов : Front: L C R, Side: L R, LFE
Частота : 48,0 КГц
Битовая глубина : 16 бит
Метод сжатия : С потерями
Размер потока : 261 Мбайт (12%)
Выравнивание : Разделение по промежуткам
Продолжительность промежутка : 40 мс. (1,00 видеокадр)
Время предзагрузки промежутка : 500 мс.

Аудио #2
Идентификатор : 2
Формат : AC-3
Формат/Информация : Audio Coding 3
Расширение режима : CM (complete main)
Параметр Endianness формата : Big
Идентификатор кодека : 2000
Продолжительность : 1 ч. 35 м.
Вид битрейта : Постоянный
Битрейт : 192 Кбит/сек
Каналы : 2 канала
Расположение каналов : Front: L R
Частота : 48,0 КГц
Битовая глубина : 16 бит
Метод сжатия : С потерями
Размер потока : 131 Мбайт (6%)
Выравнивание : Разделение по промежуткам
Продолжительность промежутка : 40 мс. (1,00 видеокадр)
Время предзагрузки промежутка : 500 мс.

pb.wtf



Скачать Лагерь через торрент https://pic1.kartinco.top/images/41/us73o.jpg Скачать фильм Лагерь через торрент бесплантно в хорошем качестве Описание: Группу «трудных» подростков отправляют в исправительный лагерь на остров Фиджи. В лагере под названием «Спокойствие» царит ... 9.9 10 14
Info! Золотая раздача, скачанное не засчитывается.
Торрент: Зарегистрирован [2013-10-29 12:25] · скачан: 241 раз
Статус: √ проверено
Размер: 2.05 GB
Как cкачать? Как скачать Лагерь через торрент | UTorrent

% Раздел Тема Автор DL S | L
Гонзо [ 2.2 GB ] Учебный Итальянский Порно Лагерь Рокко 2 / Rocco's Italian Porn Boot Camp 2 [2016 Gangbang Gonzo DP WEB-DL] leuvic Скачать
1 | 0
Гонзо [ 2.64 GB ] Учебный Итальянский Порно Лагерь Рокко / Rocco's Italian Porn Boot Camp [2015 Gangbang Gonzo DP WEB-DLRip Оригинал] Pir@tya2010 Скачать
1 | 0
Гонзо [ 2.27 GB ] Анальный Учебный Лагерь 3 / Anal Boot Camp 3 [2015 Anal Gonzo Threesomes WEB-DLRip Оригинал] Pir@tya2010 Скачать
1 | 0
Порно фильмы HD [ 9.39 GB ] Учебный Итальянский Порно Лагерь Рокко / Rocco's Italian Porn Boot Camp [2015 Anal DP Gonzo WEB-DL 1080p] Бавария Скачать
1 | 0
Порно фильмы HD [ 17.84 GB ] Анальный Учебный Лагерь 12 / Anal Boot Camp 12 [2012-2013 Gonzo Anal WEB-DL 1080p] Бавария Скачать
1 | 0
Гонзо [ 3.51 GB ] Учебный лагерь / Boot Camp [2012 All Sex Gonzo 540p WEB-DL] LuckyMan Скачать
1 | 0
Гонзо [ 2.14 GB ] Анальный Учебный Лагерь # 2 / Anal Boot Camp # 2 [2013 Gonzo Anal. DVDRip Оригинал] Pir@tya2010 Скачать
1 | 0


Последний раз редактировалось: DJERG (2013-10-29 13:55), всего редактировалось 2 раз(а)

28-11-2019 20:33  

Отключить всю рекламу на сайте

    Дорогой пользователь! Огромная просьба, поблагодарите релизера, оцените раздачу и оставьте свои комментарий, если Вы скачали Лагерь через торрент бесплатно! Внесите свою лепту в развитие PiratBit!
    Комментировать посты могут только пользователи прошедшие не сложную регистрацию
    Показать сообщения:    

    Лагерь через торрент
    Скачать бесплатно Лагерь
    Лагерь скачать торрент
    Лагерь смотреть онлайн
    Cкачать фильм Лагерь бесплатно
    Лагерь скачать торрент в хорошем качестве
    Лагерь смотреть онлайн бесплатно в хорошем качестве


    Вы не можете начинать темы
    Вы не можете отвечать на сообщения
    Вы не можете редактировать свои сообщения
    Вы не можете удалять свои сообщения
    Вы не можете голосовать в опросах
    Вы не можете прикреплять файлы к сообщениям
    Вы можете скачивать файлы