1 сезон

3 сезон

iTunes

1

iTunes

MVO

iTunes

13

1 сезон

RePack

30

Deluxe

pack

Лицензия

ВАЖНО

ИГРА 18+

pack

RePack

MK11

RePack

jed

RePack

fifa19

RePack

RDR2

RePack

NEED FOR SPEED™ PAYBACK

4 сезон

9 сезон

Бесстыжие 9 сезон

Все сериалы

все сериалы на PB.wtf

RePack

FAR CRY 5

Anonymous, доброй ночи, мы катастрофически не успеваем собрать деньги на оплату серверов, помогите нам пожалуйста 5,10,15р., для нас важна любая помощь . В качестве благодарности мы отключим Вам всю рекламу на сайте (укажите свой ник в строку Ваше имя)!

×
  
Magnet ссылка

Мэрайа Мунди и шкатулка Мидаса / The Adventurer: The Curse of the Midas Box (Джонатан Ньюман / Jonathan Newman) [2013, фэнтези, приключения, семейный, DVD5] R5 pb.wtf

Мэрайа Мунди и шкатулка Мидаса через торрент pb.wtf

Размер: 4.17 GB | Добавлен: 7 лет 8 мес. назад | Торрент скачан:150 раз
Скачать  

30-10-2013 08:49 Мэрайа Мунди и шкатулка Мидаса Скачать торрент  


Мэрайа Мунди и шкатулка Мидаса / The Adventurer: The Curse of the Midas Box
«The new name for adventure»
Страна: Великобритания
Студия: Afrodita Audiovisual, A.I.E. Arcadia Motion Pictures, Cinema One, Cronos Entertainment AIE, Entertainment Motion Pictures (E-MOTION), International Pictures Two, Le Tax Shelter du Gouvernement Fédéral de Belgique, Matador Pictures, Nix Films, Telefónica Producciones, Thekraken Films, A.I.E., uFilm
Жанр: фэнтези, приключения, семейный
Год выпуска: 2013
Дата выхода DVD: 22 октября 2013
Продолжительность: 01:34:35
Перевод: Профессиональный (многоголосый закадровый) [Лицензия]
Cубтитры: нет
Оригинальная аудиодорожка: нет
Режиссер: Джонатан Ньюман / Jonathan Newman
В ролях: Майкл Шин, Лина Хиди, Сэм Нил, Йоан Гриффит, Анайрин Барнард, Кили Хоуз, Тристан Геммилл, Дэниэл Вильде, Мелла Каррон, Ксавьер Аткинс
Описание: Мир семнадцатилетнего Мэрайа Мунди меняется, когда его родители внезапно исчезают, оставив юношу и его брата Феликса на произвол судьбы.
Бонусы: Скоро на DVD

Релиз группы:
Качество: DVD5 R5
Формат: DVD-Video
Видео кодек: MPEG2
Аудио кодек: AC3
Видео: PAL 16:9 (720x576(0.549)) MPEG Video, 25,000 кадр/сек, 5694 Кбит/сек
Аудио: Russian (Dolby AC3, 6 ch) 384 Кбит/сек, 48,0 КГц



Title: Meraya.Mundi.2013.DVD5
Size: 4.17 Gb ( 4 376 678,00 KBytes ) - DVD-5
Enabled regions: 1, 2, 3, 4, 5, 6, 7, 8

VTS_01 :
Play Length: 01:34:35
Video: PAL 16:9 (720x576) VBR, Auto Letterboxed
Audio:
Russian (Dolby AC3, 6 ch)

VTS_02 :
Play Length: 00:09:12
Video: PAL 16:9 (720x576) VBR, Auto Letterboxed
Audio:
Not specified (Dolby AC3, 2 ch)

* Menus Information *

VIDEO_TS Menu
Video:
PAL 16:9 (720x576) VBR
Auto Pan&Scan
Audio:
Not specified (Dolby AC3, 2 ch)
Russian Language Unit :
Title Menu

VTS_01 Menu
Video:
PAL 16:9 (720x576) VBR
Auto Pan&Scan
Audio:
Not specified (Dolby AC3, 6 ch)
Russian Language Unit :
Root Menu
Chapter (PTT) Menu

VTS_02 Menu
Video:
NTSC 4:3 (720x480) VBR
Auto Pan&Scan, Auto Letterboxed
Russian Language Unit :
Root Menu
Общее
Полное имя : F:Новинки 2013Meraya.Mundi.2013.DVD5VIDEO_TSVTS_01_2.VOB
Формат : MPEG-PS
Размер файла : 1024 Мбайт
Продолжительность : 23 м.
Режим общего битрейта : Переменный
Общий поток : 6201 Кбит/сек

Видео
Идентификатор : 224 (0xE0)
Формат : MPEG Video
Версия формата : Version 2
Профиль формата : Main@Main
Параметр BVOP формата : Да
Параметр матрицы формата : Выборочная
Параметр GOP формата : Variable
Продолжительность : 23 м.
Вид битрейта : Переменный
Битрейт : 5694 Кбит/сек
Максимальный битрейт : 9000 Кбит/сек
Ширина : 720 пикселей
Высота : 576 пикселей
Соотношение сторон : 16:9
Частота кадров : 25,000 кадров/сек
Стандарт вещания : PAL
Цветовое пространство : YUV
Субдискретизация насыщенности : 4:2:0
Битовая глубина : 8 бит
Тип развёртки : Прогрессивная
Порядок развёртки : Верхнее поле первое
Метод сжатия : С потерями
Бит/(Пиксели*Кадры) : 0.549
Временной код первого кадра : 01:24:42:13
Оригинал временного кода : Group of pictures header
Размер потока : 940 Мбайт (92%)

Аудио
Идентификатор : 189 (0xBD)-128 (0x80)
Формат : AC-3
Формат/Информация : Audio Coding 3
Расширение режима : CM (complete main)
Параметр Endianness формата : Big
Режим смешивания : DVD-Video
Продолжительность : 23 м.
Вид битрейта : Постоянный
Битрейт : 384 Кбит/сек
Каналы : 6 каналов
Расположение каналов : Front: L C R, Side: L R, LFE
Частота : 48,0 КГц
Битовая глубина : 16 бит
Метод сжатия : С потерями
Задержка видео : -648 мс.
Размер потока : 63,4 Мбайт (6%)










pb.wtf



Скачать Мэрайа Мунди и шкатулка Мидаса через торрент http://i57.fastpic.ru/big/2013/1029/2a/74bc043d27e1f361b226106282679d2a.jpg Скачать фильм Мэрайа Мунди и шкатулка Мидаса через торрент бесплантно в хорошем качестве Описание: Мир семнадцатилетнего Мэрайа Мунди меняется, когда его родители внезапно исчезают, оставив юношу и его брата Феликса на произвол ... 8.6 10 9
Info! Золотая раздача, скачанное не засчитывается.
Торрент: Зарегистрирован [2013-10-30 08:49] · скачан: 150 раз
Статус: √ проверено
Размер: 4.17 GB
Как cкачать? Как скачать Мэрайа Мунди и шкатулка Мидаса через торрент | UTorrent

28-11-2019 20:33  

Отключить всю рекламу на сайте

30-10-2013 19:56 Мэрайа Мунди и шкатулка Мидаса Скачать торрент  

ну так кинцо.. из 10-5 можно постявить с натяжкой.. если не поглядите -впринципе ничо не потеряете.. далеко не шедевр.pb.wtf



    Дорогой пользователь! Огромная просьба, поблагодарите релизера, оцените раздачу и оставьте свои комментарий, если Вы скачали Мэрайа Мунди и шкатулка Мидаса через торрент бесплатно! Внесите свою лепту в развитие PiratBit!
    Комментировать посты могут только пользователи прошедшие не сложную регистрацию
    Показать сообщения:    

    Мэрайа Мунди и шкатулка Мидаса через торрент
    Скачать бесплатно Мэрайа Мунди и шкатулка Мидаса
    Мэрайа Мунди и шкатулка Мидаса скачать торрент
    Мэрайа Мунди и шкатулка Мидаса смотреть онлайн
    Cкачать фильм Мэрайа Мунди и шкатулка Мидаса бесплатно
    Мэрайа Мунди и шкатулка Мидаса скачать торрент в хорошем качестве
    Мэрайа Мунди и шкатулка Мидаса смотреть онлайн бесплатно в хорошем качестве


    Вы не можете начинать темы
    Вы не можете отвечать на сообщения
    Вы не можете редактировать свои сообщения
    Вы не можете удалять свои сообщения
    Вы не можете голосовать в опросах
    Вы не можете прикреплять файлы к сообщениям
    Вы можете скачивать файлы