Ссылка на приватное зеркало нашего сайта всего за 1$. Внимание количество ограничено!!!

2 сезон

iTunes

1 сезон

1

2 сезон

2 сезон

iTunes

1 сезон

RePack

30

Новинка

ВАЖНО

ИГРА 18+

pack

RePack

MK11
pack

Забери бонус

RePack

jed

!!Акция!!

Alien_Rage

RePack

fifa19

RePack

Assassins Creed: Odyssey

RePack

NEED FOR SPEED™ PAYBACK

4 сезон

9 сезон

Бесстыжие 9 сезон

Все сериалы

все сериалы на PB.wtf

RePack

FAR CRY 5
  

Забава (Руслан Бальтцер) [2012 , Россия , драма , SATRip , Original] pb.wtf

Забава через торрент pb.wtf

Размер: 1.37 GB | Добавлен: 7 лет 1 мес. назад | Торрент скачан:179 раз
Скачать  

31-10-2013 06:48 Забава Скачать торрент  

Забава

Год выпуска: 2012
Страна: Россия
Жанр: драма
Продолжительность: 01:27:40
Перевод: Оригинальный


Режиссер: Руслан Бальтцер
В ролях: Никита Емшанов (Олег), Егор Пазенко, Анастасия Цветаева, Сергей Чугин (Антон), Сергей Комаров (полковник ФСБ), Влад Канопка (Женя), Никита Ефремов, Ольга Погодина, Артем Ткаченко, Ангелина Миримская, Рамиль Сабитов, Сергей Бадюк

Описание: Герои фильма живут без забот и в погоне за развлечениями. Но, когда вокруг творятся преступления, а ты привык закрывать на это глаза, помни, что однажды ты можешь закрыть их навсегда. Сможет ли кто-нибудь из героев вырваться из мрака безысходности и пробиться к свету? Или же они запутаются в лабиринте страстей и захлебнуться в потоке уныния?

Рейтинг
kinopoisk.ru: 6.267 (47)
Бюджет: $1 500 000

  • Качество: SATRip
  • Формат: AVI
  • Видео кодек: XviD
  • Аудио кодек: AC3
  • Видео: XviD, 720x304 (2.35:1), 2029 kbps, 25 fps, 0,371 bpp
  • Аудио: AC3 / 2.0 / 48 kHz / 192 kbps / 16 bit
    Format : AVI
    Format/Info : Audio Video Interleave
    File size : 1.37 GiB
    Duration : 1h 27mn
    Overall bit rate : 2 231 Kbps
    Writing application : VirtualDubMod 1.5.10.2 (build 2540/release)
    Writing library : VirtualDubMod build 2540/release

    Video
    ID : 0
    Format : MPEG-4 Visual
    Format profile : Advanced Simple@L5
    Format settings, BVOP : 2
    Format settings, QPel : No
    Format settings, GMC : No warppoints
    Format settings, Matrix : Default (MPEG)
    Codec ID : XVID
    Codec ID/Hint : XviD
    Duration : 1h 27mn
    Bit rate : 2 030 Kbps
    Width : 720 pixels
    Height : 304 pixels
    Display aspect ratio : 2.35:1
    Frame rate : 25.000 fps
    Color space : YUV
    Chroma subsampling : 4:2:0
    Bit depth : 8 bits
    Scan type : Progressive
    Compression mode : Lossy
    Bits/(Pixel*Frame) : 0.371
    Stream size : 1.24 GiB (91%)
    Writing library : XviD 1.2.1 (UTC 2008-12-04)

    Audio
    ID : 1
    Format : AC-3
    Format/Info : Audio Coding 3
    Mode extension : CM (complete main)
    Codec ID : 2000
    Duration : 1h 27mn
    Bit rate mode : Constant
    Bit rate : 192 Kbps
    Channel(s) : 2 channels
    Channel positions : Front: L R
    Sampling rate : 48.0 KHz
    Bit depth : 16 bits
    Compression mode : Lossy
    Stream size : 120 MiB (9%)
    Alignment : Split accross interleaves
    Interleave, duration : 40 ms (1.00 video frame)
    Interleave, preload duration : 500 ms
    pb.wtf



  • Скачать Забава через торрент http://i4.imageban.ru/out/2013/10/31/3801b053384229517602a50c5eaeb339.png Скачать фильм Забава через торрент бесплантно в хорошем качестве Описание: Герои фильма живут без забот и в погоне за развлечениями. Но, когда вокруг творятся преступления, а ты привык закрывать на это ... 10 10 6
    Info! Золотая раздача, скачанное не засчитывается.
    Торрент: Зарегистрирован [2013-10-31 06:48] · скачан: 179 раз
    Статус: √ проверено
    Размер: 1.37 GB
    Как cкачать? Как скачать Забава через торрент | qTorrent

    % Раздел Тема Автор DL S | L
    Русское любительское видео [ 108 MB ] Забавы от Жасмин часть 5 [2020 Amateur CamRip] Скорпион1976 Скачать
    2 | 0
    Русские порно фильмы [ 2.33 GB ] Дачные Забавы [1999 Amateur DVD-Remux] Леонид Ильич Скачать
    1 | 0
    HD ролики [ 249 MB ] Великолепный анал с молоком и другие забавы [2017 Anal Sex Blowjob Pissing CamRip 720p] Скорпион1976 Скачать
    1 | 0
    Фильмы до 2000 г. [ 2.9 GB ] Смертельная забава / The Funhouse [1981 BDRip-AVC] MVO VO koenig Скачать
    1 | 0
    Фильмы [HD 720p, 1080p] (Хороший звук DUB, MVO) [ 16.7 GB ] Единственная забава в городке / The Only Game in Town [1970 BDRip 1080p by msltel] MVO msltel Скачать
    1 | 0
    Фильмы [HD 720p, 1080p] (Хороший звук DUB, MVO) [ 5.46 GB ] Единственная забава в городке / The Only Game in Town [1970 BDRip 720p by msltel] MVO msltel Скачать
    1 | 0
    Гонзо [ 1.22 GB ] Забавы Времен Невинного Состояния 7 / Slutty Times At Innocent High 7 [2015 18+ Teens All Sex Teachers DVDRip Оригинальный] Pir@tya2010 Скачать
    1 | 0

    28-11-2019 20:33  

    Отключить всю рекламу на сайте

      Дорогой пользователь! Огромная просьба, поблагодарите релизера, оцените раздачу и оставьте свои комментарий, если Вы скачали Забава через торрент бесплатно! Внесите свою лепту в развитие PiratBit!
      Комментировать посты могут только пользователи прошедшие не сложную регистрацию
      Показать сообщения:    

      Забава через торрент
      Скачать бесплатно Забава
      Забава скачать торрент
      Забава смотреть онлайн
      Cкачать фильм Забава бесплатно
      Забава скачать торрент в хорошем качестве
      Забава смотреть онлайн бесплатно в хорошем качестве


      Вы не можете начинать темы
      Вы не можете отвечать на сообщения
      Вы не можете редактировать свои сообщения
      Вы не можете удалять свои сообщения
      Вы не можете голосовать в опросах
      Вы не можете прикреплять файлы к сообщениям
      Вы можете скачивать файлы