Ссылка на приватное зеркало нашего сайта всего за 1$. Внимание количество ограничено!!!

2 сезон

iTunes

1 сезон

1

2 сезон

2 сезон

iTunes

1 сезон

RePack

30

Ultimate

ВАЖНО

ИГРА 18+

pack

RePack

MK11
pack

Забери бонус

RePack

jed

!!Акция!!

Alien_Rage

RePack

fifa19

RePack

Assassins Creed: Odyssey

RePack

NEED FOR SPEED™ PAYBACK

4 сезон

9 сезон

Бесстыжие 9 сезон

Все сериалы

все сериалы на PB.wtf

RePack

FAR CRY 5
  

Девочки Гилмор / Дамы семьи Гилмор / Gilmore Girls / Сезон: 1 / Серии: 1-21 из 21 (Джеми Бэббит, Эми Шерман, Крис Лонг) [2000-2001, драма, комедия, DVD-Remux] DVO (Diva Universal) + VO (jazorw) + Original + Subs (Eng) pb.wtf

Девочки Гилмор через торрент pb.wtf

Размер: 33.71 GB | Добавлен: 7 лет назад | Торрент скачан:40 раз
Скачать  

31-10-2013 15:32 Девочки Гилмор Скачать торрент  

Девочки Гилмор / Gilmore Girls
«Life's short. Talk Fast»
Год выпуска: 2000-2001
Страна: США
Жанр: драма, комедия
Продолжительность: 00:42:24
Перевод: Профессиональный (двухголосый, закадровый) Diva Universal
любительский (одноголосый закадровый) jazorw
Субтитры: английские (отключаемые, в составе контейнера)
Режиссер: Джеми Бэббит, Эми Шерман-Палладино, Крис Лонг
В ролях: Лорен Грэм (Lorelai Gilmore), Алексис Бледел (Rory Gilmore), Кейко Аджена (Lane Kim), Скотт Гордон-Паттерсон (Luke Danes), Яник Трусдейл (Michel Gerard), Келли Бишоп (Emily Gilmore), Эдвард Херрманн (Richard Gilmore), Мелисса МакКарти (Sookie St. James), Шон Ганн (Kirk Gleason), Лиза Вейл (Paris Geller), Лиз Торрес (Miss Patty), Джаред Падалеки (Dean Forester)
Продюссер: Эми Шерман-Палладино
Описание:
Добро пожаловать в Старз Холлоу! Маленький живописный городок находящийся неподалёку от Гарварда. С населением всего в девять тысяч человек, одним отелем, маленькими магазинчиками, несколькими ресторанами, средней школой, танцевальной студией, видео салоном и единственным в городе... светофором. Здесь и протекает жизнь одинокой молодой мамы, тридцати двух лет, и её шестнадцатилетней дочки. Хотя на первый взгляд их можно принять за сестёр. Они лучшие подруги, разделяют практически всё - от взглядов на мир до вкусов на еду, музыку и кино. Картинка из жизни Лорелай и Рори очень насыщенная, непредсказуема и неординарна. И будьте уверены в том, что с Девочками Гилмор вам никогда не будет скучно!
Рейтинг
kinopoisk.ru: 8.104 (3890)
imdb.com: 7.60 (37 651)
Качество: DVD Remux |основа - DVD9
Формат: MKV
Видео кодек: MPEG-2 Video
Аудио кодек: AC3
Видео: MPEG-2 Video, 720x576 @ 768x576 (4:3), 4908 kbps, 50 fps, 0.460 bit/pixel
Аудио №1: русский / AC3 / 2.0 / 48 kHz / 128 kbps / 16 bit |DVO (Diva Universal)|
Аудио №2: русский / AC3 / 2.0 / 48 kHz / 192 kbps / 16 bit |VO (jazorw)|
Аудио №3: английский / AC3 / 2.0 / 48 kHz / 192 kbps / 16 bit |Original|

Оформление: Messa-fan

Первый сезон | Второй сезон | Третий сезон |


General
Unique ID : 189295067258192757912604427068666109222 (0x8E68E761C75A755AA7C6A09663D95D26)
Complete name : Gilmore.Girls.Season.1.DVDRemux | 1x01 - Pilot.mkv
Format : Matroska
Format version : Version 2
File size : 1.64 GiB
Duration : 42mn 24s
Overall bit rate mode : Variable
Overall bit rate : 5 531 Kbps
Encoded date : UTC 2013-03-10 19:46:09
Writing application : mkvmerge v5.8.0 ('No Sleep / Pillow') built on Sep 2 2012 15:37:04
Writing library : libebml v1.2.3 + libmatroska v1.3.0

Video
ID : 1
Format : MPEG Video
Format version : Version 2
Format profile : Main@Main
Format settings, BVOP : No
Format settings, Matrix : Custom
Codec ID : V_MPEG2
Codec ID/Info : MPEG 1 or 2 Video
Duration : 42mn 24s
Bit rate mode : Variable
Bit rate : 4 909 Kbps
Maximum bit rate : 9 800 Kbps
Width : 720 pixels
Height : 576 pixels
Display aspect ratio : 4:3
Frame rate : 50.000 fps
Original frame rate : 25.000 fps
Standard : PAL
Color space : YUV
Chroma subsampling : 4:2:0
Bit depth : 8 bits
Scan type : Progressive
Scan order : Top Field First
Compression mode : Lossy
Bits/(Pixel*Frame) : 0.237
Stream size : 1.45 GiB (89%)
Default : Yes
Forced : No

Audio #1
ID : 2
Format : AC-3
Format/Info : Audio Coding 3
Mode extension : CM (complete main)
Codec ID : A_AC3
Duration : 42mn 24s
Bit rate mode : Constant
Bit rate : 128 Kbps
Channel(s) : 2 channels
Channel positions : Front: L R
Sampling rate : 48.0 KHz
Bit depth : 16 bits
Compression mode : Lossy
Stream size : 38.8 MiB (2%)
Title : Hallmark
Language : Russian
Default : Yes
Forced : No

Audio #2
ID : 3
Format : AC-3
Format/Info : Audio Coding 3
Mode extension : CM (complete main)
Codec ID : A_AC3
Duration : 42mn 24s
Bit rate mode : Constant
Bit rate : 192 Kbps
Channel(s) : 2 channels
Channel positions : Front: L R
Sampling rate : 48.0 KHz
Bit depth : 16 bits
Compression mode : Lossy
Stream size : 58.2 MiB (3%)
Title : VO
Language : Russian
Default : No
Forced : No

Audio #3
ID : 4
Format : AC-3
Format/Info : Audio Coding 3
Mode extension : CM (complete main)
Codec ID : A_AC3
Duration : 42mn 24s
Bit rate mode : Constant
Bit rate : 192 Kbps
Channel(s) : 2 channels
Channel positions : Front: L R
Sampling rate : 48.0 KHz
Bit depth : 16 bits
Compression mode : Lossy
Stream size : 58.2 MiB (3%)
Title : Original
Language : English
Default : No
Forced : No

Text
ID : 5
Format : UTF-8
Codec ID : S_TEXT/UTF8
Codec ID/Info : UTF-8 Plain Text
Title : Eng
Language : English
Default : No
Forced : No

Menu
00:00:00.000 : en:Chapter 1
00:04:06.600 : en:Chapter 2
00:14:27.400 : en:Chapter 3
00:21:37.800 : en:Chapter 4
00:31:31.800 : en:Chapter 5
00:41:44.600 : en:Chapter 6

  • В жизни Лорен Грэм старше своей экранной дочери Алексис Бледел на 14 лет.
  • Раздача с открытым DHT - сиды есть всегда.pb.wtf



    Скачать Девочки Гилмор через торрент http://i1.imageban.ru/out/2013/10/31/f4265b7ad430ec88825e14d265a5d573.jpg Скачать фильм Девочки Гилмор через торрент бесплантно в хорошем качестве Описание: Добро пожаловать в Старз Холлоу! Маленький живописный городок находящийся неподалёку от Гарварда. С населением всего в девять ... 8.7 10 6
    Info! Золотая раздача, скачанное не засчитывается.
    Торрент: Зарегистрирован [2013-10-31 15:32] · скачан: 40 раз
    Статус: √ проверено
    Размер: 33.71 GB
    Как cкачать? Как скачать Девочки Гилмор через торрент | qTorrent



    Последний раз редактировалось: Messa-fan (2013-11-04 10:50), всего редактировалось 3 раз(а)

    28-11-2019 20:33  

    Отключить всю рекламу на сайте

    31-10-2013 17:56 Девочки Гилмор Скачать торрент  

    Раздача предназначена для просмотра на ПК, работа на "железных" плеерах не гарантируется!pb.wtf



      Дорогой пользователь! Огромная просьба, поблагодарите релизера, оцените раздачу и оставьте свои комментарий, если Вы скачали Девочки Гилмор через торрент бесплатно! Внесите свою лепту в развитие PiratBit!
      Комментировать посты могут только пользователи прошедшие не сложную регистрацию
      Показать сообщения:    

      Девочки Гилмор через торрент
      Скачать бесплатно Девочки Гилмор
      Девочки Гилмор скачать торрент
      Девочки Гилмор смотреть онлайн
      Cкачать фильм Девочки Гилмор бесплатно
      Девочки Гилмор скачать торрент в хорошем качестве
      Девочки Гилмор смотреть онлайн бесплатно в хорошем качестве


      Вы не можете начинать темы
      Вы не можете отвечать на сообщения
      Вы не можете редактировать свои сообщения
      Вы не можете удалять свои сообщения
      Вы не можете голосовать в опросах
      Вы не можете прикреплять файлы к сообщениям
      Вы можете скачивать файлы