новый адрес
Ссылка на приватное зеркало всего за 1$. Внимание количество ограничено!!!

iTunes

1+1

iTunes

мы

WEB-DL

1

iTunes

Чернобыль

iTunes

Ральф против интернета

Лицензия

ПШазам

Лицензия

Оно 2

Лицензия

30
pack

Вам бонус

ВАЖНО

!!Акция!!

Alien_RageХит недели

RePack

Resident Evil 21

ИГРА 18+

pack

RePack

jed

!!Акция!!

Alien_Rage

RePack

fifa19

RePack

Assassins Creed: Odyssey

RePack

NEED FOR SPEED™ PAYBACK

3 сезон

9 сезон

Бесстыжие 9 сезон

Все сериалы

все сериалы на PB.wtf

RePack

FAR CRY 5
Ребята, катастрофически не хватает 1900р. для оплаты серверов за Октябрь (всвязи с блокировками трафик упал в 3 раза), 1-2р., выручайте.
  

Примесь / Upstream Color (Шэйн Кэррат / Shane Carruth) [2013, США, драма, HDRip, Любительский (двухголосый) pb.wtf

Примесь через торрент pb.wtf

Размер: 1.9 GB | Добавлен: 6 лет 1 мес. назад | Торрент скачан:51 раз
Скачать  

01-11-2013 17:44 Примесь Скачать торрент  


Примесь / Upstream Color


  • Год выпуска:2013
  • Страна:США
  • Жанр:драма

  • Продолжительность: 01:36:02
  • Перевод:Любительский (двухголосый)[HamsterStudio] / Любительское (одноголосое) [Andi]

  • Субтитры: Нет
    • Режиссер:Шэйн Кэррат / Shane Carruth

  • В ролях:Эми Саймец (Kris), Шэйн Кэррат (Jeff), Эндрю Сенсениг (The Sampler), Тьяго Мартинс (Thief), Кэти Кэррат (Orchid Mother), Мередит Бурк (Orchid Daughter), Андреон Уотсон (Peter), Эштон Мирамонтес (Lucas), Майлс МакГи (Monty), Фрэнк Мосли (Husband), Кэролин Кинг (Wife), Керри МакКормик (OBGYN)
    • Описание:
      Мужчина и женщина сближаются друг с другом, запутавшись в жизненном цикле нестареющего организма.

    • Качество:HDRip
    • Формат:AVI
    • Видео кодек: XviD
    • Аудио кодек:MP3 /AC3
    • Видео: XviD, 720x304 (2.35:1), 1698 kbps, 23,976 fps, 0,324 bpp
    • Аудио №1: MP3 / 2.0 / 44 kHz / 224 kbps / Russian
    • Аудио №2: AC3 / 5.1 / 48 kHz / 448 kbps / 16 bit[Andi]
    • Аудио №3: AC3 / 5.1 / 48 kHz / 448 kbps / 16 bit / English

    General
    Complete name : D:ТорентыUpstream.Color.2013.HDRip.INTERCINEMA.avi
    Format : AVI
    Format/Info : Audio Video Interleave
    Format profile : OpenDML
    Format settings : rec
    File size : 1.90 GiB
    Duration : 1h 36mn
    Overall bit rate : 2 832 Kbps
    Writing application : AVI-Mux GUI 1.17.8.3, Feb 16 201019:42:50

    Video
    ID : 0
    Format : MPEG-4 Visual
    Format profile : Advanced Simple@L5
    Format settings, BVOP : 2
    Format settings, QPel : No
    Format settings, GMC : No warppoints
    Format settings, Matrix : Default (H.263)
    Muxing mode : Packed bitstream
    Codec ID : XVID
    Codec ID/Hint : XviD
    Duration : 1h 36mn
    Bit rate : 1 699 Kbps
    Width : 720 pixels
    Height : 304 pixels
    Display aspect ratio : 2.35:1
    Frame rate : 23.976 fps
    Color space : YUV
    Chroma subsampling : 4:2:0
    Bit depth : 8 bits
    Scan type : Progressive
    Compression mode : Lossy
    Bits/(Pixel*Frame) : 0.324
    Stream size : 1.14 GiB (60%)
    Writing library : XviD 64

    Audio #1
    ID : 1
    Format : MPEG Audio
    Format version : Version 1
    Format profile : Layer 3
    Codec ID : 55
    Codec ID/Hint : MP3
    Duration : 1h 36mn
    Bit rate mode : Constant
    Bit rate : 224 Kbps
    Channel(s) : 2 channels
    Sampling rate : 44.1 KHz
    Compression mode : Lossy
    Stream size : 154 MiB (8%)
    Alignment : Aligned on interleaves
    Interleave, duration : 26 ms (0.63 video frame)
    Interleave, preload duration : 182 ms
    Writing library : LAME3.93

    Audio #2
    ID : 2
    Format : AC-3
    Format/Info : Audio Coding 3
    Mode extension : CM (complete main)
    Codec ID : 2000
    Duration : 1h 36mn
    Bit rate mode : Constant
    Bit rate : 448 Kbps
    Channel(s) : 6 channels
    Channel positions : Front: L C R, Side: L R, LFE
    Sampling rate : 48.0 KHz
    Bit depth : 16 bits
    Compression mode : Lossy
    Stream size : 308 MiB (16%)
    Alignment : Aligned on interleaves
    Interleave, duration : 64 ms (1.53 video frames)
    Interleave, preload duration : 192 ms
    Title : VO

    Audio #3
    ID : 3
    Format : AC-3
    Format/Info : Audio Coding 3
    Mode extension : CM (complete main)
    Codec ID : 2000
    Duration : 1h 36mn
    Bit rate mode : Constant
    Bit rate : 448 Kbps
    Channel(s) : 6 channels
    Channel positions : Front: L C R, Side: L R, LFE
    Sampling rate : 48.0 KHz
    Bit depth : 16 bits
    Compression mode : Lossy
    Stream size : 308 MiB (16%)
    Alignment : Aligned on interleaves
    Interleave, duration : 64 ms (1.53 video frames)
    Interleave, preload duration : 192 ms
    Title : ENG





    Трейлеры к фильмам [2013-2014]
    © Оформление by Vetal
    pb.wtf



  • Скачать Примесь через торрент http://i58.fastpic.ru/big/2013/0922/31/4683bcd4960801b02604b79f43d30631.png Скачать фильм Примесь через торрент бесплантно в хорошем качестве Описание:Мужчина и женщина сближаются друг с другом, запутавшись в жизненном цикле нестареющего ... 10 10 2
    Info! Золотая раздача, скачанное не засчитывается.
    Торрент: Зарегистрирован [2013-11-01 17:44] · скачан: 51 раз
    Статус: T временная
    Размер: 1.9 GB
    Как cкачать? Как скачать Примесь через торрент | qTorrent

    % Раздел Тема Автор DL S | L
    Арт-хаус и авторское кино [ 1.45 GB ] Примесь / Upstream Color [2013 фантастикa HDRip VO] coc900 Скачать
    1 | 0

    28-11-2019 20:33  

    Отключить всю рекламу на сайте

    02-11-2013 07:21 Примесь Скачать торрент  

    pb.wtf



      Дорогой пользователь! Огромная просьба, поблагодарите релизера, оцените раздачу и оставьте свои комментарий, если Вы скачали Примесь через торрент бесплатно! Внесите свою лепту в развитие PiratBit!
      Комментировать посты могут только пользователи прошедшие не сложную регистрацию
      Показать сообщения:    

      Примесь через торрент
      Скачать бесплатно Примесь
      Примесь скачать торрент
      Примесь смотреть онлайн
      Cкачать фильм Примесь бесплатно
      Примесь скачать торрент в хорошем качестве
      Примесь смотреть онлайн бесплатно в хорошем качестве


      Вы не можете начинать темы
      Вы не можете отвечать на сообщения
      Вы не можете редактировать свои сообщения
      Вы не можете удалять свои сообщения
      Вы не можете голосовать в опросах
      Вы не можете прикреплять файлы к сообщениям
      Вы можете скачивать файлы