Достать ножи: Стеклянная луковица

MVO

Добыча

Дубляж

Уэнсдэй

1 сезон

Тор

Дубляж

13 клиническая

1 сезон

Жестокая ночь

MVO

Одни из нас

1 сезон

Deluxe

pack

Рекомендуем

30

Пиратка

ВАЖНО

ВАЖНО

Ghostwire

Пиратка

jed

RePack

nioh2

RePack

RDR2

RePack

NEED FOR SPEED™ PAYBACK

RePack

скачать торрент

Кинопоиск HD

Острые козырьки 6 сезон

6 сезон

FAR CRY 6

RePack

скачать торрент

Лицензия

скачать торрент

MVO

1

1 сезон

скачать торрент

1 сезон

скачать торрент

Лицензия

  

Джобс: Империя соблазна / jOBS (Джошуа Майкл Штерн / Joshua Michael Stern) [2013, драма, биография, DVD9] R5

Джобс: Империя соблазна через торрент pb.wtf

Размер: 5.45 GB | Добавлен: 9 лет 3 мес. назад | Торрент скачан:148 раз
Смотреть онлайн | Скачать | Поддержите нас   

01-11-2013 19:11 Джобс: Империя соблазна Скачать торрент  


Джобс: Империя соблазна / jOBS
«Некоторые видят возможности, другие меняют эти возможности»
Страна: США
Студия: Devoted Consultants, Endgame Entertainment, Five Star Institute, If Entertainment, Open Road Films (II), Silver Reel, Venture Forth, Virgin Produced
Жанр: драма, биография
Год выпуска: 2013
Мировая премьера: 25 января 2013
Российская премьера: 19 сентября 2013
Украинская премьера: 19 сентября 2013
Дата выхода DVD: 5 ноября 2013
Дата выхода Blu-Ray: 5 ноября 2013
Продолжительность: 02:02:16
Перевод: Профессиональный (дублированный) [Лицензия]
Cубтитры: нет
Оригинальная аудиодорожка: нет
Режиссер: Джошуа Майкл Штерн / Joshua Michael Stern
В ролях: Эштон Кутчер, Дермот Малруни, Джош Гад, Лукас Хаас, Дж.К. Симмонс, Лесли Энн Уоррен, Рон Элдард, Ана О’Райли, Джон Гец, Джеймс Вудс
Описание: Он был молод, красив и чертовски талантлив. Начав с нуля, он смог построить мировую империю соблазна. О нем грезили женщины. Ему завидовали мужчины. Он соблазнил миллионы. Его звали Стив Джобс.
Бонусы: нет

Качество: DVD9 R5
Формат: DVD-Video
Видео кодек: MPEG2
Аудио кодек: AC3
Видео: PAL 16:9 (720x576(0.577)) MPEG Video, 25,000 кадр/сек, 5979 Кбит/сек
Аудио: Russian (Dolby AC3, 6 ch) 448 Кбит/сек, 48,0 КГц



Title: Dzhobs.Imperija.soblazna.2013.DVD9
Size: 5.45 Gb ( 5 712 090,00 KBytes ) - DVD-9
Enabled regions: 1, 2, 3, 4, 5, 6, 7, 8

VTS_01 :
Play Length: 00:00:05
Video: PAL 4:3 (720x576) VBR

VTS_02 :
Play Length: 00:00:20
Video: PAL 16:9 (720x576) VBR, Auto Letterboxed

VTS_03 :
Play Length: 00:00:16
Video: PAL 16:9 (720x576) VBR, Auto Letterboxed
Audio:
Not specified (Dolby AC3, 2 ch)

VTS_04 :
Play Length: 00:00:07
Video: PAL 16:9 (720x576) VBR, Auto Letterboxed
Audio:
Not specified (Dolby AC3, 2 ch)

VTS_05 :
Play Length: 00:00:16
Video: PAL 16:9 (720x576) VBR, Auto Letterboxed
Audio:
Not specified (Dolby AC3, 2 ch)

VTS_06 :
Play Length: 02:02:16
Video: PAL 16:9 (720x576) VBR, Auto Letterboxed
Audio:
Russian, AC3, 3/2 (L,C,R,SL,SR)+LFE ch, 448 kbps, Delay 0 mSec

* Menus Information *

VIDEO_TS Menu
Video:
PAL 16:9 (720x576) VBR
Auto Pan&Scan, Auto Letterboxed
English Language Unit :
Title Menu

VTS_01 Menu
Video:
PAL 16:9 (720x576) VBR
Auto Letterboxed
Audio:
Not specified (Dolby AC3, 2 ch)
English Language Unit :
Root Menu

VTS_02 Menu
Video:
PAL 4:3 (720x576) VBR
English Language Unit :
Root Menu

VTS_03 Menu
Video:
PAL 4:3 (720x576) VBR
English Language Unit :
Root Menu

VTS_04 Menu
Video:
PAL 4:3 (720x576) VBR
English Language Unit :
Root Menu

VTS_05 Menu
Video:
PAL 4:3 (720x576) VBR
English Language Unit :
Root Menu

VTS_06 Menu
Video:
PAL 4:3 (720x576) VBR
English Language Unit :
Root Menu
Общее
Полное имя : F:Новинки 2013Dzhobs.Imperija.soblazna.2013.DVD9VIDEO_TSVTS_06_1.VOB
Формат : MPEG-PS
Размер файла : 1024 Мбайт
Продолжительность : 21 м.
Режим общего битрейта : Переменный
Общий поток : 6558 Кбит/сек

Видео
Идентификатор : 224 (0xE0)
Формат : MPEG Video
Версия формата : Version 2
Профиль формата : [email protected]
Параметр BVOP формата : Да
Параметр матрицы формата : По умолчанию
Параметр GOP формата : M=3, N=12
Продолжительность : 21 м.
Вид битрейта : Переменный
Битрейт : 5979 Кбит/сек
Максимальный битрейт : 8000 Кбит/сек
Ширина : 720 пикселей
Высота : 576 пикселей
Соотношение сторон : 16:9
Частота кадров : 25,000 кадров/сек
Стандарт вещания : PAL
Цветовое пространство : YUV
Субдискретизация насыщенности : 4:2:0
Битовая глубина : 8 бит
Тип развёртки : Прогрессивная
Метод сжатия : С потерями
Бит/(Пиксели*Кадры) : 0.577
Временной код первого кадра : 00:00:00:00
Оригинал временного кода : Group of pictures header
Размер потока : 934 Мбайт (91%)

Аудио
Идентификатор : 189 (0xBD)-128 (0x80)
Формат : AC-3
Формат/Информация : Audio Coding 3
Расширение режима : CM (complete main)
Параметр Endianness формата : Big
Режим смешивания : DVD-Video
Продолжительность : 21 м.
Вид битрейта : Постоянный
Битрейт : 448 Кбит/сек
Каналы : 6 каналов
Расположение каналов : Front: L C R, Side: L R, LFE
Частота : 48,0 КГц
Битовая глубина : 16 бит
Метод сжатия : С потерями
Размер потока : 69,9 Мбайт (7%)













Скачать Джобс: Империя соблазна через торрент http://i57.fastpic.ru/big/2013/1030/90/197befc1e74959340ea65434c55bc890.jpg Скачать, смотреть онлайн Джобс: Империя соблазна бесплантно в хорошем качестве Описание: Он был молод, красив и чертовски талантлив. Начав с нуля, он смог построить мировую империю соблазна. О нем грезили женщины. Ему ... 8.7 10 7
Info! Золотая раздача, скачанное не засчитывается.
Торрент: Зарегистрирован [2013-11-01 19:11] · скачан: 148 раз
Статус: √ проверено
Размер: 5.45 GB
Как cкачать? Как скачать Джобс: Империя соблазна через торрент | UTorrent

28-11-2019 20:33  


Отключить вcю реклaмy на сайте, в т.ч. и в плеере онлайн просмотра!

    Дорогой пользователь! Огромная просьба, поблагодарите релизера, оцените раздачу и оставьте свои комментарий, если Вы скачали Джобс: Империя соблазна через торрент бесплатно!!
    Комментировать посты могут только пользователи прошедшие не сложную регистрацию
    Показать сообщения:    


    Джобс: Империя соблазна через торрент
    Скачать бесплатно Джобс: Империя соблазна
    Джобс: Империя соблазна скачать торрент
    Джобс: Империя соблазна смотреть онлайн
    Cкачать фильм Джобс: Империя соблазна бесплатно
    Джобс: Империя соблазна скачать торрент в хорошем качестве
    Джобс: Империя соблазна смотреть онлайн бесплатно в хорошем качестве
    Вы не можете начинать темы
    Вы не можете отвечать на сообщения
    Вы не можете редактировать свои сообщения
    Вы не можете удалять свои сообщения
    Вы не можете голосовать в опросах
    Вы не можете прикреплять файлы к сообщениям
    Вы можете скачивать файлы
    Джобс: Империя соблазна / jOBS [2013, драма, биография, DVD9] R5 смотреть онлайн, скачать торрент picoco.icu