1 сезон

3 сезон

iTunes

1

iTunes

MVO

iTunes

13

1 сезон

RePack

30

Deluxe

pack

Лицензия

ВАЖНО

ИГРА 18+

pack

RePack

MK11

RePack

jed

RePack

fifa19

RePack

RDR2

RePack

NEED FOR SPEED™ PAYBACK

4 сезон

9 сезон

Бесстыжие 9 сезон

Все сериалы

все сериалы на PB.wtf

RePack

FAR CRY 5

Anonymous, доброй ночи, мы катастрофически не успеваем собрать деньги на оплату серверов, помогите нам пожалуйста 5,10,15р., для нас важна любая помощь . В качестве благодарности мы отключим Вам всю рекламу на сайте (укажите свой ник в строку Ваше имя)!

×
  
Magnet ссылка

Лавлэйс / Lovelace (Роб Эпштейн, Джеффри Фридман / Rob Epstein, Jeffrey Friedman) [2013, драма, биография, DVD5] R5 pb.wtf

Лавлэйс через торрент pb.wtf

Размер: 4.34 GB | Добавлен: 7 лет 8 мес. назад | Торрент скачан:88 раз
Скачать  

02-11-2013 14:43 Лавлэйс Скачать торрент  


Лавлэйс / Lovelace
«Легенда запретного кино»
Страна: США
Студия: Animus Films, Eclectic Pictures Inc., Millennium Films, Untitled Entertainment
Жанр: драма, биография
Год выпуска: 2013
Мировая премьера: 22 января 2013
Российская премьера: 5 сентября 2013
Дата выхода DVD: 5 ноября 2013
Продолжительность: 01:28:52
Перевод: Профессиональный (дублированный) [Лицензия]
Cубтитры: нет
Оригинальная аудиодорожка: нет
Режиссер: Роб Эпштейн, Джеффри Фридман / Rob Epstein, Jeffrey Friedman
В ролях: Аманда Сайфред, Питер Сарсгаард, Роберт Патрик, Шэрон Стоун, Джуно Темпл, Адам Броди, Бобби Каннавале, Крис Нот, Эрик Робертс, Джеймс Франко
Описание: Биография самой известной порноактрисы Линды Лавлейс. Чтобы заработать подобную славу, ей нужно было сыграть только в одном фильме — «Глубокая глотка». Всю свою жизнь после этого она посвятила борьбе за права женщин.
Бонусы: Скоро на DVD

Релиз группы:
Качество: DVD5 R5
Формат: DVD-Video
Видео кодек: MPEG2
Аудио кодек: AC3
Видео: PAL 16:9 (720x576(0.668)) MPEG Video, 25,000 кадр/сек, 6921 Кбит/сек
Аудио: Russian (Dolby AC3, 6 ch) 384 Кбит/сек, 48,0 КГц



Title: Lavleys.2013.DVD5
Size: 4.34 Gb ( 4 550 170,00 KBytes ) - DVD-5
Enabled regions: 1, 2, 3, 4, 5, 6, 7, 8

VTS_01 :
Play Length: 01:28:52
Video: PAL 16:9 (720x576) VBR, Auto Letterboxed
Audio:
Russian (Dolby AC3, 6 ch)

VTS_02 :
Play Length: 00:06:54
Video: PAL 16:9 (720x576) VBR, Auto Letterboxed
Audio:
Not specified (Dolby AC3, 2 ch)

* Menus Information *

VIDEO_TS Menu
Video:
PAL 16:9 (720x576) VBR
Auto Pan&Scan
Audio:
Not specified (Dolby AC3, 2 ch)
Russian Language Unit :
Title Menu

VTS_01 Menu
Video:
PAL 16:9 (720x576) VBR
Auto Pan&Scan
Audio:
Not specified (Dolby AC3, 6 ch)
Russian Language Unit :
Root Menu
Chapter (PTT) Menu

VTS_02 Menu
Video:
NTSC 4:3 (720x480) VBR
Auto Pan&Scan, Auto Letterboxed
Russian Language Unit :
Root Menu
Общее
Полное имя : F:Новинки 2013Lavleys.2013.DVD5VIDEO_TSVTS_01_2.VOB
Формат : MPEG-PS
Размер файла : 1024 Мбайт
Продолжительность : 19 м.
Режим общего битрейта : Переменный
Общий поток : 7453 Кбит/сек

Видео
Идентификатор : 224 (0xE0)
Формат : MPEG Video
Версия формата : Version 2
Профиль формата : Main@Main
Параметр BVOP формата : Да
Параметр матрицы формата : Выборочная
Параметр GOP формата : Variable
Продолжительность : 19 м.
Вид битрейта : Переменный
Битрейт : 6921 Кбит/сек
Максимальный битрейт : 9000 Кбит/сек
Ширина : 720 пикселей
Высота : 576 пикселей
Соотношение сторон : 16:9
Частота кадров : 25,000 кадров/сек
Стандарт вещания : PAL
Цветовое пространство : YUV
Субдискретизация насыщенности : 4:2:0
Битовая глубина : 8 бит
Тип развёртки : Прогрессивная
Порядок развёртки : Верхнее поле первое
Метод сжатия : С потерями
Бит/(Пиксели*Кадры) : 0.668
Временной код первого кадра : 01:21:32:17
Оригинал временного кода : Group of pictures header
Размер потока : 951 Мбайт (93%)

Аудио
Идентификатор : 189 (0xBD)-128 (0x80)
Формат : AC-3
Формат/Информация : Audio Coding 3
Расширение режима : CM (complete main)
Параметр Endianness формата : Big
Режим смешивания : DVD-Video
Продолжительность : 19 м.
Вид битрейта : Постоянный
Битрейт : 384 Кбит/сек
Каналы : 6 каналов
Расположение каналов : Front: L C R, Side: L R, LFE
Частота : 48,0 КГц
Битовая глубина : 16 бит
Метод сжатия : С потерями
Задержка видео : -664 мс.
Размер потока : 52,8 Мбайт (5%)










pb.wtf



Скачать Лавлэйс через торрент http://i60.fastpic.ru/big/2013/1101/dd/0b6e2fa052e399c902549bc935b6f3dd.jpg Скачать фильм Лавлэйс через торрент бесплантно в хорошем качестве Описание: Биография самой известной порноактрисы Линды Лавлейс. Чтобы заработать подобную славу, ей нужно было сыграть только в одном ... 10 10 7
Info! Золотая раздача, скачанное не засчитывается.
Торрент: Зарегистрирован [2013-11-02 14:43] · скачан: 88 раз
Статус: √ проверено
Размер: 4.34 GB
Как cкачать? Как скачать Лавлэйс через торрент | UTorrent

28-11-2019 20:33  

Отключить всю рекламу на сайте

    Дорогой пользователь! Огромная просьба, поблагодарите релизера, оцените раздачу и оставьте свои комментарий, если Вы скачали Лавлэйс через торрент бесплатно! Внесите свою лепту в развитие PiratBit!
    Комментировать посты могут только пользователи прошедшие не сложную регистрацию
    Показать сообщения:    

    Лавлэйс через торрент
    Скачать бесплатно Лавлэйс
    Лавлэйс скачать торрент
    Лавлэйс смотреть онлайн
    Cкачать фильм Лавлэйс бесплатно
    Лавлэйс скачать торрент в хорошем качестве
    Лавлэйс смотреть онлайн бесплатно в хорошем качестве


    Вы не можете начинать темы
    Вы не можете отвечать на сообщения
    Вы не можете редактировать свои сообщения
    Вы не можете удалять свои сообщения
    Вы не можете голосовать в опросах
    Вы не можете прикреплять файлы к сообщениям
    Вы можете скачивать файлы