Ссылка на приватное зеркало нашего сайта всего за 1$. Внимание количество ограничено!!!

2 сезон

iTunes

1 сезон

1

2 сезон

2 сезон

iTunes

1 сезон

RePack

30

Ultimate

ВАЖНО

ИГРА 18+

pack

RePack

MK11
pack

Забери бонус

RePack

jed

!!Акция!!

Alien_Rage

RePack

fifa19

RePack

Assassins Creed: Odyssey

RePack

NEED FOR SPEED™ PAYBACK

4 сезон

9 сезон

Бесстыжие 9 сезон

Все сериалы

все сериалы на PB.wtf

RePack

FAR CRY 5
  

Анатомия Грей / Анатомия страсти / Grey's Anatomy / Сезон: 6 / Серии 1-24 (Полный сезон) [2009-2010 гг., США, драма, мелодрама, WEB-DL 720p] MVO Fox Life pb.wtf

Анатомия Грей через торрент pb.wtf

Раздают: 1 [ 0 KB/s ] Качают: 1 [ 0 KB/s ]
Размер: 35.06 GB | Добавлен: 7 лет назад | Торрент скачан:242 раза
Скачать  

03-11-2013 13:02 Анатомия Грей Скачать торрент  

Анатомия страсти / Анатомия Грей / Grey's Anatomy
«Operations. Relations. Complications»
Год выпуска: 2009-2010
Страна: США
Жанр: драма, мелодрама
Продолжительность: 00:41:35
Перевод: Профессиональный (многоголосый, закадровый) Fox Life
Субтитры: Русские (отключаемые, в составе контейнера)
В ролях: Патрик Демпси (Dr. Derek Shepherd), Эллен Помпео (Dr. Meredith Grey), Сандра О (Dr. Cristina Yang), Джастин Чэмберс (Dr. Alex Karev), Чандра Уилсон (Dr. Miranda Bailey), Джеймс Пикенс мл. (Dr. Richard Webber), Эрик Дэйн (Dr. Mark Sloan), Кэтрин Хайгл (Dr. Izzie Stevens), Сара Рамирес (Dr. Callie Torres), Кевин МакКидд (Dr. Owen Hunt), Кайлер Ли (Dr. Lexie Grey), Джессика Кэпшоу (Dr. Arizona Robbins)
Описание:
В центре событий - молодая женщина-хирург Мередит Грей, дочь известного врача Эллис Грей. Она работает в городской больнице Сиэтла, и её коллеги, такие же начинающие врачи, как она. Хирурги оперируют и влюбляются, заводят истории болезни и служебные романы, хранят свои врачебные тайны, борются с осложнениями у пациентов и в собственной личной жизни. И зачастую отношения с противоположным полом волнуют их не меньше, чем вопрос приобретения ими профессионального опыта.
Название отсылает к одной из самых известных в хирургических кругах книге - "Анатомии Грея" за авторством Генри Грея (Grey's Anatomy).
Номинации (более 137) и победы (53), включая престижные Emmy, Golden Globe, SAG. (подробнее под спойлером)
Сериал вот уже на протяжении 10 сезонов остаётся самой рейтинговой драмой телеканала ABC.
Рейтинг
kinopoisk.ru: 8.233 (11 503)
imdb.com: 7.40 (99 615)
Качество: WEB-DL 720p
Формат: MKV
Видео кодек: AVC
Аудио кодек: MP3 /AC3
Видео: H.264, 1280x720, ~4 000 Kbps (0.189 bit/pixel), 23.976 fps
Аудио серии 1-2
Аудио #1: MP3 , 48.0 KHz, 2 ch, 128 Kbps, CBR |MVO, FoxLife|
Аудио #2: AAC LC, 48.0 KHz, 2 ch (English)
Аудио остальные серии
Аудио #1: AC-3, 48.0 KHz, 6 ch, 384 Kbps, CBR |MVO, FoxLife|
Аудио #2: AC-3, 48.0 KHz, 6 ch, 384 Kbps, CBR (English)

Первый сезон (дубляж) | Второй сезон (MVO СТС) | Третий сезон (MVO СТС) | Четвёртый сезон (дубляж) | Пятый сезон (MVO FoxLife)
Шестой сезон (MVO FoxLife) | Седьмой сезон (MVO FoxLife) | Восьмой сезон (MVO FoxLife)

Оформление: Messa-fan
General
Unique ID : 249772390096939870869588126428869011345 (0xBBE8699C0474817FBEDAA632D0F5A791)
Complete name : Greys_Anatomy_Season_6_720p | Greys.Anatomy.S06E01.720p.WEB-DL.RUS.ENG.x264.mkv
Format : Matroska
Format version : Version 1
File size : 1.34 GiB
Duration : 43mn 30s
Overall bit rate : 4 408 Kbps
Movie name : Grey's Anatomy s06e01 - Good Mourning
Encoded date : UTC 2010-03-28 13:38:37
Writing application : mkvmerge v2.2.0 ('Turn It On Again') built on Mar 4 2008 12:58:26
Writing library : libebml v0.7.7 + libmatroska v0.8.1

Video
ID : 1
Format : AVC
Format/Info : Advanced Video Codec
Format profile : High@L3.1
Format settings, CABAC : No
Format settings, ReFrames : 2 frames
Format settings, GOP : M=2, N=71
Codec ID : V_MPEG4/ISO/AVC
Duration : 43mn 30s
Width : 1 280 pixels
Height : 720 pixels
Display aspect ratio : 16:9
Frame rate mode : Constant
Frame rate : 23.976 fps
Color space : YUV
Chroma subsampling : 4:2:0
Bit depth : 8 bits
Scan type : Progressive
Language : English
Default : Yes
Forced : No
Color primaries : BT.709
Transfer characteristics : BT.709
Matrix coefficients : BT.709

Audio #1
ID : 2
Format : MPEG Audio
Format version : Version 1
Format profile : Layer 3
Mode : Joint stereo
Mode extension : MS Stereo
Codec ID : A_MPEG/L3
Codec ID/Hint : MP3
Duration : 43mn 30s
Bit rate mode : Constant
Bit rate : 128 Kbps
Channel(s) : 2 channels
Sampling rate : 48.0 KHz
Compression mode : Lossy
Stream size : 39.8 MiB (3%)
Language : Russian
Default : Yes
Forced : No

Audio #2
ID : 3
Format : AAC
Format/Info : Advanced Audio Codec
Format profile : LC
Codec ID : A_AAC
Duration : 43mn 30s
Channel(s) : 2 channels
Channel positions : Front: L R
Sampling rate : 48.0 KHz
Compression mode : Lossy
Language : English
Default : No
Forced : No

Text
ID : 4
Format : UTF-8
Codec ID : S_TEXT/UTF8
Codec ID/Info : UTF-8 Plain Text
Language : Russian
Default : Yes
Forced : No
General
Unique ID : 190209899200465249904598227592594968366 (0x8F1918143E927E908D1DCE8F8335CF2E)
Complete name : Greys_Anatomy_Season_6_720p | Greys.Anatomy.S06E03.720p.WEB-DL.RUS.ENG.x264.DD5.1.mkv
Format : Matroska
Format version : Version 1
File size : 1.53 GiB
Duration : 43mn 30s
Overall bit rate : 5 044 Kbps
Movie name : Grey's Anatomy s06e03 - I Always Feel Like Somebody's Watchin' Me
Encoded date : UTC 2010-03-28 14:05:25
Writing application : mkvmerge v2.2.0 ('Turn It On Again') built on Mar 4 2008 12:58:26
Writing library : libebml v0.7.7 + libmatroska v0.8.1

Video
ID : 1
Format : AVC
Format/Info : Advanced Video Codec
Format profile : High@L3.1
Format settings, CABAC : No
Format settings, ReFrames : 2 frames
Codec ID : V_MPEG4/ISO/AVC
Duration : 43mn 30s
Bit rate : 4 175 Kbps
Width : 1 280 pixels
Height : 720 pixels
Display aspect ratio : 16:9
Frame rate mode : Constant
Frame rate : 23.976 fps
Color space : YUV
Chroma subsampling : 4:2:0
Bit depth : 8 bits
Scan type : Progressive
Bits/(Pixel*Frame) : 0.189
Stream size : 1.27 GiB (83%)
Language : English
Default : Yes
Forced : No
Color primaries : BT.709
Transfer characteristics : BT.709
Matrix coefficients : BT.709

Audio #1
ID : 2
Format : AC-3
Format/Info : Audio Coding 3
Mode extension : CM (complete main)
Format settings, Endianness : Big
Codec ID : A_AC3
Duration : 43mn 30s
Bit rate mode : Constant
Bit rate : 384 Kbps
Channel(s) : 6 channels
Channel positions : Front: L C R, Side: L R, LFE
Sampling rate : 48.0 KHz
Bit depth : 16 bits
Compression mode : Lossy
Stream size : 119 MiB (8%)
Language : Russian
Default : Yes
Forced : No

Audio #2
ID : 3
Format : AC-3
Format/Info : Audio Coding 3
Mode extension : CM (complete main)
Format settings, Endianness : Big
Codec ID : A_AC3
Duration : 43mn 30s
Bit rate mode : Constant
Bit rate : 384 Kbps
Channel(s) : 6 channels
Channel positions : Front: L C R, Side: L R, LFE
Sampling rate : 48.0 KHz
Bit depth : 16 bits
Compression mode : Lossy
Stream size : 119 MiB (8%)
Language : English
Default : No
Forced : No

Text
ID : 4
Format : UTF-8
Codec ID : S_TEXT/UTF8
Codec ID/Info : UTF-8 Plain Text
Language : Russian
Default : Yes
Forced : No
20.05.2010 24 Death and All His Friends
20.05.2010 23 Sanctuary
13.05.2010 22 Shiny Happy People
06.05.2010 21 How Insensitive
29.04.2010 20 Hook, Line and Sinner
01.04.2010 19 Sympathy for the Parents
25.03.2010 18 Suicide is Painless
11.03.2010 17 Push
04.03.2010 16 Perfect Little Accident
18.02.2010 15 The Time Warp
11.02.2010 14 Valentine's Day Massacre
04.02.2010 13 State of Love and Trust
21.01.2010 12 I Like You So Much Better When You're Naked
14.01.2010 11 Blink
19.11.2009 10 Holidaze
12.11.2009 09 New History
05.11.2009 08 Invest In Love
29.10.2009 07 Give Peace a Chance
22.10.2009 06 I Saw What I Saw
15.10.2009 05 Invasion
08.10.2009 04 Tainted Obligation
01.10.2009 03 I Always Feel Like Somebody's Watchin' Me
24.09.2009 02 Goodbye (2)
24.09.2009 01 Good Mourning (1)
Источники: IMDB | Wikipedia
Награды
. В целом шоу 38 раз было номинировано на высшую телевизионную премию «Эмми», выиграв четырежды: в 2006 году в категории «Лучший кастинг в драматическом сериале», в 2007 году в Кэтрин Хейгл получила премию «Лучшую женскую роль второго плана в драматическом телесериале», в 2010 году за «Лучший гримм» и в 2011 году Лоретта Дивайн получила премию в категории «Лучшая приглашенная актриса в драматическом телесериале» за роль Адель Веббер.

В 2005 году Сандра О выиграла премию «Золотой глобус» в категории «Лучшая женская роль второго плана — мини-сериал, телесериал или телефильм», а год спустя сериал был удостоен награды в категории «Лучший телевизионный сериал — драма». Сандра О в 2006 году выиграла «Премию Гильдии киноактёров США» в категории «за лучшую женскую роль в драматическом сериале», а год спустя Чандра Уилсон также получила награду в данной категории. В 2006 году сериал получил «Премию Гильдии киноактёров США за лучший актёрский ансамбль в драматическом сериале».

«Анатомия страсти» четырежды получала премию NAACP в категории «Лучший драматический телесериал», с 2006 по 2009 год. Чандра Уилсон выиграла четыре премии: за "Лучшую женскую роль второго плана " в 2007 и 2008, «Лучшую женскую роль» в 2009, и за лучшую режиссуру за эпизод «Give Peace a Chance» в 2010 году. Шонда Раймс выиграла четыре премии в категории «Лучший сценарий в драматическом сериале»: с 2007 по 2010 год. В 2006 году сериал был назван «Любимой драмой на ТВ» в рамках ежегодной премии «Выбор народа». Патрик Демпси получил премию «Любимая мужчина-звезда на ТВ» В 2006 и 2007 годах, а Хейгл получила премии «Любимая женщина-звезда на ТВ» в 2006 и «Лучшая актриса драмы на ТВ» в 2007 году. Уилсон в 2007 году также получила премию как «Лучшая актриса, крадущая сцены». В 2007 году Эллен Помпео получила «Спутник» в категории «Лучшая женская роль в драматическом сериале». В 2005 году сериал выиграл награду «Гильдии сценаристов Америки» в категории «Лучшее новое шоу».
Полный список наград можно увидеть на IMDB
Раздача с открытым DHT - сиды есть всегда.pb.wtf



Скачать Анатомия Грей через торрент http://i2.imageban.ru/out/2013/10/13/ae8bed63be565bdede7e7e05fe7bb329.jpg Скачать фильм Анатомия Грей через торрент бесплантно в хорошем качестве Описание: В центре событий - молодая женщина-хирург Мередит Грей, дочь известного врача Эллис Грей. Она работает в городской больнице ... 9.9 10 7
Info! Золотая раздача, скачанное не засчитывается.
Торрент: Зарегистрирован [2013-11-03 13:02] · скачан: 242 раз
Статус: √ проверено
Размер: 35.06 GB
Как cкачать? Как скачать Анатомия Грей через торрент | qTorrent

28-11-2019 20:33  

Отключить всю рекламу на сайте

    Дорогой пользователь! Огромная просьба, поблагодарите релизера, оцените раздачу и оставьте свои комментарий, если Вы скачали Анатомия Грей через торрент бесплатно! Внесите свою лепту в развитие PiratBit!
    Комментировать посты могут только пользователи прошедшие не сложную регистрацию
    Показать сообщения:    

    Анатомия Грей через торрент
    Скачать бесплатно Анатомия Грей
    Анатомия Грей скачать торрент
    Анатомия Грей смотреть онлайн
    Cкачать фильм Анатомия Грей бесплатно
    Анатомия Грей скачать торрент в хорошем качестве
    Анатомия Грей смотреть онлайн бесплатно в хорошем качестве


    Вы не можете начинать темы
    Вы не можете отвечать на сообщения
    Вы не можете редактировать свои сообщения
    Вы не можете удалять свои сообщения
    Вы не можете голосовать в опросах
    Вы не можете прикреплять файлы к сообщениям
    Вы можете скачивать файлы