Ссылка на приватное зеркало нашего сайта всего за 1$. Внимание количество ограничено!!!

2 сезон

iTunes

1 сезон

1

2 сезон

2 сезон

iTunes

1 сезон

RePack

30

Ultimate

ВАЖНО

ИГРА 18+

pack

RePack

MK11
pack

Забери бонус

RePack

jed

!!Акция!!

Alien_Rage

RePack

fifa19

RePack

Assassins Creed: Odyssey

RePack

NEED FOR SPEED™ PAYBACK

4 сезон

9 сезон

Бесстыжие 9 сезон

Все сериалы

все сериалы на PB.wtf

RePack

FAR CRY 5
  

Девочки Гилмор / Дамы семьи Гилмор / Gilmore Girls / Сезон: 3 / Серии: 1-22 из 22 (Джеми Бэббит, Эми Шерман, Крис Лонг) [2002-2003, драма, комедия, DVD-Remux] DVO [Diva Universal] + VO [Vyen&nau / serg2001] + Original + Subs (Rus, Eng) pb.wtf

Девочки Гилмор через торрент pb.wtf

Размер: 34.76 GB | Добавлен: 7 лет назад | Торрент скачан:9 раз
Скачать  

04-11-2013 10:41 Девочки Гилмор Скачать торрент  

Девочки Гилмор / Gilmore Girls
«Life's short. Talk Fast»
Год выпуска: 2002-2003
Страна: США
Жанр: драма, комедия
Продолжительность: 00:42:24
Перевод: Профессиональный (двухголосый, закадровый) Diva Universal
Любительский (одноголосый закадровый) - Vyen&nau [серии 1-7] / serg2001 [серии 8-22]
Субтитры: Русские, английские (отключаемые, в составе контейнера)
Режиссер: Джеми Бэббит, Эми Шерман-Палладино, Крис Лонг
В ролях: Лорен Грэм (Lorelai Gilmore), Алексис Бледел (Rory Gilmore), Кейко Аджена (Lane Kim), Скотт Гордон-Паттерсон (Luke Danes), Яник Трусдейл (Michel Gerard), Келли Бишоп (Emily Gilmore), Эдвард Херрманн (Richard Gilmore), Мелисса МакКарти (Sookie St. James), Шон Ганн (Kirk Gleason), Лиза Вейл (Paris Geller), Лиз Торрес (Miss Patty), Джаред Падалеки (Dean Forester)
Продюссер: Эми Шерман-Палладино
Описание:
Добро пожаловать в Старз Холлоу! Маленький живописный городок находящийся неподалёку от Гарварда. С населением всего в девять тысяч человек, одним отелем, маленькими магазинчиками, несколькими ресторанами, средней школой, танцевальной студией, видео салоном и единственным в городе... светофором. Здесь и протекает жизнь одинокой молодой мамы, тридцати двух лет, и её шестнадцатилетней дочки. Хотя на первый взгляд их можно принять за сестёр. Они лучшие подруги, разделяют практически всё - от взглядов на мир до вкусов на еду, музыку и кино. Картинка из жизни Лорелай и Рори очень насыщенная, непредсказуема и неординарна. И будьте уверены в том, что с Девочками Гилмор вам никогда не будет скучно!
Рейтинг
kinopoisk.ru: 8.104 (3890)
imdb.com: 7.60 (37 651)
Качество: DVD Remux |основа - DVD9
Формат: MKV
Видео кодек: MPEG-2 Video
Аудио кодек: AC3
Видео: MPEG-2 Video, 720x576 @ 768x576 (4:3), 4908 kbps, 25.000 fps, 0.460 bit/pixel
Аудио #1: AC-3, 48.0 KHz, 2 ch, 128 Kbps, CBR |Russian|DVO (Diva Universal)| | отсутствует в двенадцатой серии
Аудио #2: AC-3, 48.0 KHz, 2 ch, 192 Kbps, CBR |Russian|VO (Vyen&nau [серии 1-7] / serg2001 [серии 8-22])|
Аудио #3: AC-3, 48.0 KHz, 2 ch, 192 Kbps, CBR |English|Original|

Оформление: Messa-fan

Первый сезон | Второй сезон | Третий сезон |


General
Unique ID : 175598504696689598217453996875391059329 (0x841B0AB5ED8368B39FE6B1DEB5564581)
Complete name : Gilmore.Girls.Season.3.DVDRemux | 3x01 - Lazy-Hazy-Crazy Days.mkv
Format : Matroska
Format version : Version 4 / Version 2
File size : 1.61 GiB
Duration : 42mn 32s
Overall bit rate mode : Variable
Overall bit rate : 5 420 Kbps
Encoded date : UTC 2013-05-15 11:08:00
Writing application : mkvmerge v6.1.0 ('Old Devil') built on Mar 2 2013 14:32:37
Writing library : libebml v1.3.0 + libmatroska v1.4.0

Video
ID : 1
Format : MPEG Video
Format version : Version 2
Format profile : Main@Main
Format settings, BVOP : No
Format settings, Matrix : Custom
Codec ID : V_MPEG2
Codec ID/Info : MPEG 1 or 2 Video
Duration : 42mn 32s
Bit rate mode : Variable
Bit rate : 4 800 Kbps
Maximum bit rate : 9 800 Kbps
Width : 720 pixels
Height : 576 pixels
Display aspect ratio : 4:3
Frame rate mode : Constant
Frame rate : 25.000 fps
Standard : PAL
Color space : YUV
Chroma subsampling : 4:2:0
Bit depth : 8 bits
Compression mode : Lossy
Bits/(Pixel*Frame) : 0.463
Time code of first frame : 00:59:59:00
Time code source : Group of pictures header
Stream size : 1.43 GiB (89%)
Default : Yes
Forced : No

Audio #1
ID : 2
Format : AC-3
Format/Info : Audio Coding 3
Mode extension : CM (complete main)
Format settings, Endianness : Big
Codec ID : A_AC3
Duration : 42mn 32s
Bit rate mode : Constant
Bit rate : 128 Kbps
Channel(s) : 2 channels
Channel positions : Front: L R
Sampling rate : 48.0 KHz
Bit depth : 16 bits
Compression mode : Lossy
Stream size : 39.0 MiB (2%)
Title : DVO (Diva Universal)
Language : Russian
Default : Yes
Forced : No

Audio #2
ID : 3
Format : AC-3
Format/Info : Audio Coding 3
Mode extension : CM (complete main)
Format settings, Endianness : Big
Codec ID : A_AC3
Duration : 42mn 32s
Bit rate mode : Constant
Bit rate : 192 Kbps
Channel(s) : 2 channels
Channel positions : Front: L R
Sampling rate : 48.0 KHz
Bit depth : 16 bits
Compression mode : Lossy
Stream size : 58.4 MiB (4%)
Title : VO (Vyen&nau)
Language : Russian
Default : No
Forced : No

Audio #3
ID : 4
Format : AC-3
Format/Info : Audio Coding 3
Mode extension : CM (complete main)
Format settings, Endianness : Big
Codec ID : A_AC3
Duration : 42mn 32s
Bit rate mode : Constant
Bit rate : 192 Kbps
Channel(s) : 2 channels
Channel positions : Front: L R
Sampling rate : 48.0 KHz
Bit depth : 16 bits
Compression mode : Lossy
Stream size : 58.4 MiB (4%)
Title : Original
Language : English
Default : No
Forced : No

Text #1
ID : 5
Format : UTF-8
Codec ID : S_TEXT/UTF8
Codec ID/Info : UTF-8 Plain Text
Title : Russian (Full)
Language : Russian
Default : No
Forced : No

Text #2
ID : 6
Format : UTF-8
Codec ID : S_TEXT/UTF8
Codec ID/Info : UTF-8 Plain Text
Title : English
Language : English
Default : No
Forced : No

Menu
00:00:00.000 : en:Chapter 1
00:05:52.840 : en:Chapter 2
00:14:11.880 : en:Chapter 3
00:21:41.640 : en:Chapter 4
00:30:00.600 : en:Chapter 5
00:41:54.600 : en:Chapter 6
00:42:32.280 : en:Chapter 7

  • В жизни Лорен Грэм старше своей экранной дочери Алексис Бледел на 14 лет.
  • Раздача с открытым DHT - сиды есть всегда.pb.wtf



    Скачать Девочки Гилмор через торрент http://i1.imageban.ru/out/2013/10/31/f4265b7ad430ec88825e14d265a5d573.jpg Скачать фильм Девочки Гилмор через торрент бесплантно в хорошем качестве Описание: Добро пожаловать в Старз Холлоу! Маленький живописный городок находящийся неподалёку от Гарварда. С населением всего в девять ... 10 10 1
    Info! Золотая раздача, скачанное не засчитывается.
    Торрент: Зарегистрирован [2013-11-04 10:41] · скачан: 9 раз
    Статус: √ проверено
    Размер: 34.76 GB
    Как cкачать? Как скачать Девочки Гилмор через торрент | qTorrent

    28-11-2019 20:33  

    Отключить всю рекламу на сайте

    04-11-2013 10:56 Девочки Гилмор Скачать торрент  

    Раздача предназначена для просмотра на ПК, работа на "железных" плеерах не гарантируетсяpb.wtf



      Дорогой пользователь! Огромная просьба, поблагодарите релизера, оцените раздачу и оставьте свои комментарий, если Вы скачали Девочки Гилмор через торрент бесплатно! Внесите свою лепту в развитие PiratBit!
      Комментировать посты могут только пользователи прошедшие не сложную регистрацию
      Показать сообщения:    

      Девочки Гилмор через торрент
      Скачать бесплатно Девочки Гилмор
      Девочки Гилмор скачать торрент
      Девочки Гилмор смотреть онлайн
      Cкачать фильм Девочки Гилмор бесплатно
      Девочки Гилмор скачать торрент в хорошем качестве
      Девочки Гилмор смотреть онлайн бесплатно в хорошем качестве


      Вы не можете начинать темы
      Вы не можете отвечать на сообщения
      Вы не можете редактировать свои сообщения
      Вы не можете удалять свои сообщения
      Вы не можете голосовать в опросах
      Вы не можете прикреплять файлы к сообщениям
      Вы можете скачивать файлы