Ссылка на приватное зеркало нашего сайта всего за 1$. Внимание количество ограничено!!!

2 сезон

iTunes

1 сезон

1

2 сезон

2 сезон

iTunes

1 сезон

RePack

30

Ultimate

ВАЖНО

ИГРА 18+

pack

RePack

MK11
pack

Забери бонус

RePack

jed

!!Акция!!

Alien_Rage

RePack

fifa19

RePack

Assassins Creed: Odyssey

RePack

NEED FOR SPEED™ PAYBACK

4 сезон

9 сезон

Бесстыжие 9 сезон

Все сериалы

все сериалы на PB.wtf

RePack

FAR CRY 5
  

Отряд героев / Company of Heroes (Дон Майкл Пол) [2013 г., боевик, военный, BD-Remux, Профессиональный многоголосый (закадровый)] pb.wtf

Отряд героев через торрент pb.wtf

Размер: 19.7 GB | Добавлен: 7 лет назад | Торрент скачан:54 раза
Скачать  

05-11-2013 11:05 Отряд героев Скачать торрент  

Отряд героев / Company of Heroes
Год выпуска: 2013
Страна: США
Жанр: боевик, военный
Продолжительность: 01:40:28
Перевод: Профессиональный многоголосый (закадровый)
Субтитры: Русские, английские

Режиссер: Дон Майкл Пол
Продюссер: Джеффри Бич, Филлип Дж. Рот, Джон Каппилла
Сценарий: Дэвид Рид, Дэнни Билсон, Пол Де Мео

Премьера в мире: 26 февраля 2013



В ролях: Том Сайзмор, Чад Коллинз, Винни Джонс, Дмитрий Дьяченко, Нил МакДонаф, Юрген Прохнов, Мелиа Крейлинг, Ричард Саммел, Филип Рам, Аластер Маккензи

Описание: Американские солдаты, попавшие в тыл врага во время Второй мировой войны, узнают, что у Гитлера есть модернизированная бомба. Несмотря на все трудности, они отправляются на поиски ученого, отвечающего за эту бомбу.

Качество: BD-Remux
Формат: MKV
Видео кодек: AVC
Аудио кодек: DTS-HD
Видео: MPEG-4 AVC Video / 25101 kbps / 1920x1080p / 23,976 fps / 16:9 / High Profile 4.1
Аудио#1: Русский / Dolby Digital Audio / 5.1 / 48 kHz / 384 kbps / 16-bit / MVO
Аудио#2: Русский / Dolby Digital Audio / 2.0 / 48 kHz / 256 kbps / 16-bit / VO Неизвестный солдат
Аудио#3: English / DTS-HD Master Audio / 5.1 / 48 kHz / 2334 kbps / 16-bit (DTS Core: 5.1 / 48 kHz / 1509 kbps / 16-bit) / Оригинал




Общее
Уникальный идентификатор : 218882443882711125561640298651065869891 (0xA4AB39AD17C4B1AEB26ACFCCCC356643)
Полное имя : E:Company of Heroes (2013) BDRemux-1080p.mkv
Формат : Matroska
Версия формата : Version 4 / Version 2
Размер файла : 19,7 Гбайт
Продолжительность : 1 ч. 40 м.
Режим общего битрейта : Переменный
Общий поток : 28,1 Мбит/сек
Название фильма : GORESEWAGE
Дата кодирования : UTC 2013-04-25 19:43:47
Программа кодирования : mkvmerge v6.1.0 ('Old Devil') built on Mar 31 2013 15:21:18
Библиотека кодирования : libebml v1.3.0 + libmatroska v1.4.0

Видео
Идентификатор : 1
Формат : AVC
Формат/Информация : Advanced Video Codec
Профиль формата : High@L4.1
Параметр CABAC формата : Да
Параметр ReFrames формата : 2 кадра
Идентификатор кодека : V_MPEG4/ISO/AVC
Продолжительность : 1 ч. 40 м.
Вид битрейта : Переменный
Ширина : 1920 пикселей
Высота : 1080 пикселей
Соотношение сторон : 16:9
Режим частоты кадров : Постоянный
Частота кадров : 23,976 кадра/сек
Цветовое пространство : YUV
Субдискретизация насыщенности : 4:2:0
Битовая глубина : 8 бит
Тип развёртки : Прогрессивная
Заголовок : GORESEWAGE
Язык : English
Default : Да
Forced : Нет

Аудио #1
Идентификатор : 2
Формат : AC-3
Формат/Информация : Audio Coding 3
Расширение режима : CM (complete main)
Параметр Endianness формата : Big
Идентификатор кодека : A_AC3
Продолжительность : 1 ч. 40 м.
Вид битрейта : Постоянный
Битрейт : 384 Кбит/сек
Каналы : 6 каналов
Расположение каналов : Front: L C R, Side: L R, LFE
Частота : 48,0 КГц
Битовая глубина : 16 бит
Метод сжатия : С потерями
Размер потока : 276 Мбайт (1%)
Заголовок : Профессиональный (многоголосый закадровый)
Язык : Russian
Default : Да
Forced : Нет

Аудио #2
Идентификатор : 3
Формат : AC-3
Формат/Информация : Audio Coding 3
Расширение режима : CM (complete main)
Параметр Endianness формата : Big
Идентификатор кодека : A_AC3
Продолжительность : 1 ч. 40 м.
Вид битрейта : Постоянный
Битрейт : 256 Кбит/сек
Каналы : 2 канала
Расположение каналов : Front: L R
Частота : 48,0 КГц
Битовая глубина : 16 бит
Метод сжатия : С потерями
Размер потока : 184 Мбайт (1%)
Заголовок : Одноголосый закадровый Неизвестный солдат
Язык : Russian
Default : Нет
Forced : Нет

Аудио #3
Идентификатор : 4
Формат : DTS
Формат/Информация : Digital Theater Systems
Профиль формата : MA / Core
Режим : 16
Параметр Endianness формата : Big
Идентификатор кодека : A_DTS
Продолжительность : 1 ч. 40 м.
Вид битрейта : Переменный
Битрейт : Неизвестно / 1509 Кбит/сек
Каналы : 6 каналов
Расположение каналов : Front: L C R, Side: L R, LFE
Частота : 48,0 КГц
Битовая глубина : 16 бит
Метод сжатия : Без потерь / Lossy
Заголовок : Оригинал
Язык : English
Default : Нет
Forced : Нет

Текст #1
Идентификатор : 5
Формат : UTF-8
Идентификатор кодека : S_TEXT/UTF8
Идентификатор кодека/Информация : UTF-8 Plain Text
Язык : Russian
Default : Нет
Forced : Нет

Текст #2
Идентификатор : 6
Формат : UTF-8
Идентификатор кодека : S_TEXT/UTF8
Идентификатор кодека/Информация : UTF-8 Plain Text
Заголовок : Full
Язык : English
Default : Нет
Forced : Нет

Меню
00:00:00.000 : en:00:00:00.000
00:05:59.401 : en:00:05:59.401
00:11:24.809 : en:00:11:24.809
00:15:57.290 : en:00:15:57.290
00:22:15.876 : en:00:22:15.876
00:28:56.860 : en:00:28:56.860
00:34:36.533 : en:00:34:36.533
00:42:13.740 : en:00:42:13.740
00:46:32.790 : en:00:46:32.790
00:53:27.371 : en:00:53:27.371
00:59:41.620 : en:00:59:41.620
01:05:14.911 : en:01:05:14.911
01:11:46.385 : en:01:11:46.385
01:19:12.748 : en:01:19:12.748
01:23:54.780 : en:01:23:54.780
01:28:59.125 : en:01:28:59.125
pb.wtf



Скачать Отряд героев через торрент http://firepic.org/images/2013-08/09/mklp7heqw04w.png Скачать фильм Отряд героев через торрент бесплантно в хорошем качестве Описание: Американские солдаты, попавшие в тыл врага во время Второй мировой войны, узнают, что у Гитлера есть модернизированная бомба. ... 9.5 10 8
Info! Золотая раздача, скачанное не засчитывается.
Торрент: Зарегистрирован [2013-11-05 11:05] · скачан: 54 раз
Статус: √ проверено
Размер: 19.7 GB
Как cкачать? Как скачать Отряд героев через торрент | qTorrent

% Раздел Тема Автор DL S | L
Фильмы [HD 720p, 1080p] (Хороший звук DUB, MVO) [ 5.01 GB ] Отряд героев / Company of Heroes [2013 военный BDRip 720p MVO] Артронах Скачать
1 | 0
Фильмы 2012 [ 1.46 GB ] Отряд героев / Company of Heroes [2012 военный HDRip] лицензия diletant Скачать
1 | 0
Фильмы (DVD фильмы) [ 5.62 GB ] Отряд героев / Company of Heroes [2012 военный DVD9] R5 voovaz Скачать
1 | 0
Фильмы без перевода [ 4.37 GB ] Отряд героев / Company of Heroes [2013 Военный BDRip 720p Оригинал] smaster Скачать
1 | 0

28-11-2019 20:33  

Отключить всю рекламу на сайте

05-11-2013 11:15 Отряд героев Скачать торрент  

Хороший фильм. Но иногда кажеться что фильм дешевкаpb.wtf



05-11-2013 16:13 Отряд героев Скачать торрент  

Что значит "иногда кажется" ?? Что за бред...)pb.wtf



05-11-2013 19:02 Отряд героев Скачать торрент  

фильм и есть дешевкаpb.wtf



25-09-2015 10:10 Отряд героев Скачать торрент  

последний скрин раскрывает суть фильма полностью как спойлер.посмотрел спойлер значит посмотрел весь фильм.сэкономил время спасибоpb.wtf



    Дорогой пользователь! Огромная просьба, поблагодарите релизера, оцените раздачу и оставьте свои комментарий, если Вы скачали Отряд героев через торрент бесплатно! Внесите свою лепту в развитие PiratBit!
    Комментировать посты могут только пользователи прошедшие не сложную регистрацию
    Показать сообщения:    

    Отряд героев через торрент
    Скачать бесплатно Отряд героев
    Отряд героев скачать торрент
    Отряд героев смотреть онлайн
    Cкачать фильм Отряд героев бесплатно
    Отряд героев скачать торрент в хорошем качестве
    Отряд героев смотреть онлайн бесплатно в хорошем качестве


    Вы не можете начинать темы
    Вы не можете отвечать на сообщения
    Вы не можете редактировать свои сообщения
    Вы не можете удалять свои сообщения
    Вы не можете голосовать в опросах
    Вы не можете прикреплять файлы к сообщениям
    Вы можете скачивать файлы