2 сезон

iTunes

1 сезон

1

iTunes

iTunes

iTunes

1 сезон

RePack

30

ИГРА 18+

pack

ВАЖНО

!!Акция!!

Alien_RageХит недели

RePack

MK11
pack

Забери бонус

RePack

jed

!!Акция!!

Alien_Rage

RePack

fifa19

RePack

Assassins Creed: Odyssey

RePack

NEED FOR SPEED™ PAYBACK

4 сезон

9 сезон

Бесстыжие 9 сезон

Все сериалы

все сериалы на PB.wtf

RePack

FAR CRY 5
  

Блэки летит на Луну / Black to the Moon 3D (Франсис Нилсен / Francis Nielsen) [2013, Испания, Италия, Франция, мультфильм, комедия, приключения, DVDRip, Профессиональный (полное дублирование)[Лицензия] pb.wtf

Блэки летит на Луну через торрент pb.wtf

Размер: 1.46 GB | Добавлен: 6 лет 11 мес. назад | Торрент скачан:693 раза
Скачать  

05-11-2013 21:26 Блэки летит на Луну Скачать торрент  


Блэки летит на Луну / Black to the Moon 3D


  • Год выпуска:2013
  • Страна:Испания, Италия, Франция
  • Жанр:мультфильм, комедия, приключения
  • Продолжительность: 01:17:13
  • Перевод:Профессиональный (полное дублирование)[Лицензия]

  • Субтитры: Нет
    • Режиссер:Франсис Нилсен / Francis Nielsen

  • В ролях:Кристина Хьюз (Laika), Питер Хадсон (Marvin (English version)), Кэролин Фаллин (Theodora), Брайан Вермейр (Hu Flung Pu), Бобби Джексон (Johnny Pastrino)
    • Описание:
      Овечка Блэки - настоящая чума для всей фермы. Она - постоянный нарушитель спокойствия, энергии у нее на десятерых. Она - черная овечка и очень гордится этим, потому что не хочет быть такой, как все. Животные-соседи называют ее «очаровательным бедствием». Иногда они считают Блэки невыносимой, но в конце концов стараются помочь в осуществлении ее безумных фантазий. И сейчас она просто одержима идеей полета на Луну. А о чем мечтает пес Кануто, охраняющий овец? О том, чтобы стать самым великим псом-охранником овец всех времен. Для этого он учится и трудится как проклятый. Он милый и хороший, и все просто обожают его. Ему нравится тишина и покой. И как такой правильный пес мог полюбить такую вздорную овечку? Несмотря на то, что он и слышать ничего не хотел о ракетах, Кануто решил поддержать свою обожаемую Блэки.
      В ходе подготовки полета в какие только приключения они не попадут и каких только героев не встретят: корову - оперную певицу, волка - модного дизайнера, пауков-нелегалов, работающих на швейной фабрике, парочку птиц - участников реалити-шоу, овечку Пинки размером с Годзиллу, и главное - компанию собак, у которых уже есть ракета, практически готовая к запуску...

    Бюджет:$15 000 000 / Мировая премьера:15 февраля 2013
    • Качество:DVDRip
    • Формат:AVI
    • Видео кодек: XviD
    • Аудио кодек:AC3
    • Видео: XviD, 720x400 (16:9), 2307 kbps, 25 fps, 0,320 bpp
    • Аудио: AC3 / 5.1 / 48 kHz / 384 kbps / 16 bit

    General
    Complete name : D:ТорентыBleki.letit.na.lunu.2013.D.DVDRip_[New-Team]_by_avproh.avi
    Format : AVI
    Format/Info : Audio Video Interleave
    File size : 1.46 GiB
    Duration : 1h 17mn
    Overall bit rate : 2 701 Kbps
    Writing application : VirtualDubMod 1.5.10.3 | www.virtualdub-fr.org || (build 2550/release)
    Writing library : VirtualDubMod build 2550/release

    Video
    ID : 0
    Format : MPEG-4 Visual
    Format profile : Advanced Simple@L5
    Format settings, BVOP : 1
    Format settings, QPel : No
    Format settings, GMC : No warppoints
    Format settings, Matrix : Custom
    Codec ID : XVID
    Codec ID/Hint : XviD
    Duration : 1h 17mn
    Bit rate : 2 308 Kbps
    Width : 720 pixels
    Height : 400 pixels
    Display aspect ratio : 16:9
    Frame rate : 25.000 fps
    Color space : YUV
    Chroma subsampling : 4:2:0
    Bit depth : 8 bits
    Scan type : Progressive
    Compression mode : Lossy
    Bits/(Pixel*Frame) : 0.320
    Stream size : 1.24 GiB (85%)
    Writing library : XviD 73

    Audio
    ID : 1
    Format : AC-3
    Format/Info : Audio Coding 3
    Mode extension : CM (complete main)
    Codec ID : 2000
    Duration : 1h 17mn
    Bit rate mode : Constant
    Bit rate : 384 Kbps
    Channel(s) : 6 channels
    Channel positions : Front: L C R, Side: L R, LFE
    Sampling rate : 48.0 KHz
    Bit depth : 16 bits
    Compression mode : Lossy
    Stream size : 212 MiB (14%)
    Alignment : Split accross interleaves
    Interleave, duration : 40 ms (1.00 video frame)
    Interleave, preload duration : 500 ms





    Трейлеры к фильмам [2013-2014]
    © Оформление by Vetal
    pb.wtf



  • Скачать Блэки летит на Луну через торрент http://i58.fastpic.ru/big/2013/0922/31/4683bcd4960801b02604b79f43d30631.png Скачать фильм Блэки летит на Луну через торрент бесплантно в хорошем качестве Описание:Овечка Блэки - настоящая чума для всей фермы. Она - постоянный нарушитель спокойствия, энергии у нее на десятерых. Она - черная ... 8.9 10 25
    Info! Золотая раздача, скачанное не засчитывается.
    Торрент: Зарегистрирован [2013-11-05 21:26] · скачан: 693 раз
    Статус: √ проверено
    Размер: 1.46 GB
    Как cкачать? Как скачать Блэки летит на Луну через торрент | qTorrent

    % Раздел Тема Автор DL S | L
    Иностранные мультфильмы [ 2.05 GB ] Блэки летит на Луну / Black to the Moon 3D [2013 мультфильм DVDRip ] coc900 Скачать
    1 | 0
    3D Мультфильмы [ 5.63 GB ] Блэки летит на Луну в 3Д / Black to the Moon 3D [2013 Мультфильм BDrip 1080p] OverUnder / Вертикальная стереопара serega768 Скачать
    1 | 0
    3D Мультфильмы [ 16.62 GB ] Блэки летит на Луну / Black to the Moon 3D [2013 Испания Италия мультфильм 2D 3D / Blu-Ray [ - ] Ворон Скачать
    1 | 0
    Зарубежные Мультфильмы (DVD) [ 4.36 GB ] Блэки летит на Луну / Black to the Moon 3D [2013 мультфильм DVD5] R5 voovaz Скачать
    1 | 0

    28-11-2019 20:33  

    Отключить всю рекламу на сайте

      Дорогой пользователь! Огромная просьба, поблагодарите релизера, оцените раздачу и оставьте свои комментарий, если Вы скачали Блэки летит на Луну через торрент бесплатно! Внесите свою лепту в развитие PiratBit!
      Комментировать посты могут только пользователи прошедшие не сложную регистрацию
      Показать сообщения:    

      Блэки летит на Луну через торрент
      Скачать бесплатно Блэки летит на Луну
      Блэки летит на Луну скачать торрент
      Блэки летит на Луну смотреть онлайн
      Cкачать фильм Блэки летит на Луну бесплатно
      Блэки летит на Луну скачать торрент в хорошем качестве
      Блэки летит на Луну смотреть онлайн бесплатно в хорошем качестве


      Вы не можете начинать темы
      Вы не можете отвечать на сообщения
      Вы не можете редактировать свои сообщения
      Вы не можете удалять свои сообщения
      Вы не можете голосовать в опросах
      Вы не можете прикреплять файлы к сообщениям
      Вы можете скачивать файлы