2 сезон

iTunes

MVO

1

2 сезон

iTunes

iTunes

1 сезон

RePack

30

Новинка

ВАЖНО

ИГРА 18+

pack

RePack

MK11
pack

Легкие деньги

RePack

jed

RePack

fifa19

RePack

RDR2

RePack

NEED FOR SPEED™ PAYBACK

4 сезон

9 сезон

Бесстыжие 9 сезон

Все сериалы

все сериалы на PB.wtf

RePack

FAR CRY 5

Anonymous, добрый вечер, мы не успеваем собрать деньги на оплату серверов за декабрь и январь, помогите нам пожалуйста в это трудное время. В качестве благодарности мы отключим Вам всю рекламу на сайте (укажите свой ник в строку Ваше имя)!

×
  
Magnet ссылка

Улики / Evidence (Олатунде Осунсанми / Olatunde Osunsanmi) [2013, США, триллер, ужасы, BDRip] DUB Лицензия + Original (Eng) + Subs (Rus, Eng) pb.wtf

Улики через торрент pb.wtf

Размер: 1.44 GB | Добавлен: 7 лет 2 мес. назад | Торрент скачан:636 раз
Скачать  

05-11-2013 22:59 Улики Скачать торрент  

УликиEvidence«Собери ужас по фрагментам» Страна: США
Жанр: триллер, ужасы
Год выпуска: 2013
Продолжительность: 01:33:57

Перевод: Профессиональный (полное дублирование) [Лицензия]
Оригинальная аудиодорожка: английский
Субтитры: русские, английские

Режиссер: Олатунде Осунсанми / Olatunde Osunsanmi

В ролях: Кэйтлин Стэйси, Рада Митчелл, Торри ДеВито, Дейл Дикки, Нолан Фанк, Стивен Мойер, Гарри Дж. Ленникс, Амл Амин, Джон Хеймс Ньютон, Джеймс Райен, Светлана Меткина, Барак Хардли

Описание: В автобусе, направлявшемся в Лас-Вегас, совершено жестокое убийство. На месте преступления - ни одного уцелевшего. Только несколько трупов и хаотичный набор мобильных телефонов, карманных видеокамер и других устройств, оставшихся от потерпевших. Детектив, которому поручено расследование, с помощью сохранившихся записей пытается восстановить цепь загадочных событий, приведших к трагедии.



Качество: BDRip
Контейнер: AVI
Видео кодек: XviD
Аудио кодек: AC3
Видео: XviD, 720x304 (2.35:1), 1418 kbps, 23,976 fps, 0,270 bpp
Аудио №1: AC3 / 5.1 / 48 kHz / 384 kbps / 16 bit — rus
Аудио №2: AC3 / 5.1 / 48 kHz / 384 kbps / 16 bit — eng
Субтитры: отдельным файлом
Общее
Полное имя : Uliki.2013.BDRip.avi
Формат : AVI
Формат/Информация : Audio Video Interleave
Размер файла : 1,44 Гбайт
Продолжительность : 1 ч. 33 м.
Общий поток : 2201 Кбит/сек
Программа кодирования : VirtualDubModRus 1.5.10.2 (build 2542/release)
Библиотека кодирования : VirtualDubMod build 2542/release

Видео
Идентификатор : 0
Формат : MPEG-4 Visual
Профиль формата : Advanced Simple@L5
Параметр BVOP формата : 1
Параметр QPel формата : Нет
Параметр GMC формата : Без точки перехода
Параметр матрицы формата : Выборочная
Идентификатор кодека : XVID
Идентификатор кодека/Подсказка : XviD
Продолжительность : 1 ч. 33 м.
Битрейт : 1419 Кбит/сек
Ширина : 720 пикселей
Высота : 304 пикселя
Соотношение сторон : 2,35:1
Частота кадров : 23,976 кадра/сек
Цветовое пространство : YUV
Субдискретизация насыщенности : 4:2:0
Битовая глубина : 8 бит
Тип развёртки : Прогрессивная
Метод сжатия : С потерями
Бит/(Пиксели*Кадры) : 0.270
Размер потока : 954 Мбайт (64%)
Библиотека кодирования : XviD 65

Аудио #1
Идентификатор : 1
Формат : AC-3
Формат/Информация : Audio Coding 3
Расширение режима : CM (complete main)
Параметр Endianness формата : Big
Идентификатор кодека : 2000
Продолжительность : 1 ч. 33 м.
Вид битрейта : Постоянный
Битрейт : 384 Кбит/сек
Каналы : 6 каналов
Расположение каналов : Front: L C R, Side: L R, LFE
Частота : 48,0 КГц
Битовая глубина : 16 бит
Метод сжатия : С потерями
Размер потока : 258 Мбайт (17%)
Выравнивание : Разделение по промежуткам
Продолжительность промежутка : 42 мс. (1,00 видеокадр)
Время предзагрузки промежутка : 500 мс.

Аудио #2
Идентификатор : 2
Формат : AC-3
Формат/Информация : Audio Coding 3
Расширение режима : CM (complete main)
Параметр Endianness формата : Big
Идентификатор кодека : 2000
Продолжительность : 1 ч. 33 м.
Вид битрейта : Постоянный
Битрейт : 384 Кбит/сек
Каналы : 6 каналов
Расположение каналов : Front: L C R, Side: L R, LFE
Частота : 48,0 КГц
Битовая глубина : 16 бит
Метод сжатия : С потерями
Размер потока : 258 Мбайт (17%)
Выравнивание : Разделение по промежуткам
Продолжительность промежутка : 42 мс. (1,00 видеокадр)
Время предзагрузки промежутка : 500 мс.
pb.wtf



Скачать Улики через торрент http://i58.fastpic.ru/big/2013/1105/68/f5d9f3fa8d512ce4e48819525054c768.jpg Скачать фильм Улики через торрент бесплантно в хорошем качестве Описание: В автобусе, направлявшемся в Лас-Вегас, совершено жестокое убийство. На месте преступления - ни одного уцелевшего. Только ... 10 10 14
Info! Золотая раздача, скачанное не засчитывается.
Торрент: Зарегистрирован [2013-11-05 22:59] · скачан: 636 раз
Статус: √ проверено
Размер: 1.44 GB
Как cкачать? Как скачать Улики через торрент | UTorrent

% Раздел Тема Автор DL S | L
Фильмы [HD 720p, 1080p] (Хороший звук DUB, MVO) [ 12.57 GB ] Тело как улика / Body Of Evidence [1993 BDRip 1080p by msltel] 2 x MVO 3 x DVO AVO msltel Скачать
1 | 0
Фильмы [HD 720p, 1080p] (Хороший звук DUB, MVO) [ 4.85 GB ] Тело как улика / Body Of Evidence [1993 BDRip 720p by msltel] 2 x MVO 3 x DVO AVO msltel Скачать
1 | 0
Фильмы (Blu-ray, BD-Remux, HDDVD) [ 18.23 GB ] Улики / Evidence [2013 BDRemux ()[] Ворон Скачать
1 | 0
Фильмы 2012 [ 2.18 GB ] Улики / Evidence [2012 BDRip-AVC] potroks Скачать
1 | 0
Фильмы (DVD фильмы) [ 6.31 GB ] Улики / Evidence [2013 DVD9] R5 voovaz Скачать
1 | 0
Фильмы 2013 [DVDrip, WEB-DLRip, HDrip] [ 1.37 GB ] Улики / Evidence [2013 HDRip ] Seedtank Скачать
1 | 0
Фильмы [HD 720p, 1080p] (Хороший звук DUB, MVO) [ 4.65 GB ] Улики / Evidence [2013 BDRip 720p [] Ворон Скачать
1 | 0


Последний раз редактировалось: Liloo_Foofyga (2013-11-06 15:42), всего редактировалось 1 раз

28-11-2019 20:33  

Отключить всю рекламу на сайте

05-11-2013 23:15 Улики Скачать торрент  

Liloo_Foofyga

Liloo_Foofyga писал(а):

Аудио №1: AC3 / 5.1 / 48 kHz / 384 kbps / 16 bit
Аудио №2: AC3 / 5.1 / 48 kHz / 384 kbps / 16 bit

подпиши каждую дорожку рус.англ....

Liloo_Foofyga писал(а):

Полного источника не было: Никогда

?pb.wtf



06-11-2013 15:28 Улики Скачать торрент  

Скачивается! Все в норме!
ТС спасибоpb.wtf



17-11-2013 15:03 Улики Скачать торрент  

Фильм ПОЛНОЕ ...............!!!pb.wtf



    Дорогой пользователь! Огромная просьба, поблагодарите релизера, оцените раздачу и оставьте свои комментарий, если Вы скачали Улики через торрент бесплатно! Внесите свою лепту в развитие PiratBit!
    Комментировать посты могут только пользователи прошедшие не сложную регистрацию
    Показать сообщения:    

    Улики через торрент
    Скачать бесплатно Улики
    Улики скачать торрент
    Улики смотреть онлайн
    Cкачать фильм Улики бесплатно
    Улики скачать торрент в хорошем качестве
    Улики смотреть онлайн бесплатно в хорошем качестве


    Вы не можете начинать темы
    Вы не можете отвечать на сообщения
    Вы не можете редактировать свои сообщения
    Вы не можете удалять свои сообщения
    Вы не можете голосовать в опросах
    Вы не можете прикреплять файлы к сообщениям
    Вы можете скачивать файлы