Ссылка на приватное зеркало нашего сайта всего за 1$. Внимание количество ограничено!!!

2 сезон

iTunes

1 сезон

1

2 сезон

2 сезон

iTunes

1 сезон

RePack

30

Новинка

ВАЖНО

ИГРА 18+

pack

RePack

MK11
pack

Забери бонус

RePack

jed

!!Акция!!

Alien_Rage

RePack

fifa19

RePack

Assassins Creed: Odyssey

RePack

NEED FOR SPEED™ PAYBACK

4 сезон

9 сезон

Бесстыжие 9 сезон

Все сериалы

все сериалы на PB.wtf

RePack

FAR CRY 5
  

Мистер и миссис Смит / Mr. & Mrs. Smith (Даг Лайман) [2005 г., боевик, комедия, криминал, BD-Remux, Дубляж] pb.wtf

Мистер и миссис Смит через торрент pb.wtf

Размер: 23.2 GB | Добавлен: 7 лет назад | Торрент скачан:3 раза
Скачать  

06-11-2013 19:33 Мистер и миссис Смит Скачать торрент  

Мистер и миссис Смит / Mr. & Mrs. Smith
Год выпуска: 2005
Страна: США
Жанр: боевик, комедия, криминал
Продолжительность: 01:59:58
Перевод: Дубляж
Субтитры: Нет

Режиссер: Даг Лайман
Продюссер: Лукас Фостер, Акива Голдсман, Эрик МакЛеод
Сценарий: Саймон Кинберг

Бюджет: $110 000 000
Премьера в мире: 7 июня 2005



В ролях: Брэд Питт, Анджелина Джоли, Винс Вон, Адам Броди, Керри Вашингтон, Кейт Дэвид, Крис Вейц, Рэйчел Хантли, Мишель Монахэн, Стефани Марч, Дженнифер Моррисон, Тереза Баррера, Перри Ривз, Мелани Толберт, Джерри Т. Адамс, Элайджа Александр, Ганс Ф. Александр, Лорин Альварез, Бурк Армстронг, Рон Боттитта, Эрл Х. Баллок

Описание: Джон и Джейн женаты не так долго, но уже утомлены своим браком. Им кажется, что они знают друг о друге все. Но есть кое-что, что каждый предпочитает держать при себе: оба они — наемные убийцы, которые тайно путешествуют по миру, выполняя опасные миссии. Эти отдельные тайные приключения становятся их общей судьбой в тот момент, когда Джейн получает заказ на Джона, а Джон на Джейн.

Качество: BD-Remux
Формат: MKV
Видео кодек: H.264
Аудио кодек: DTS
Видео: 1920x1080, H264, 23.976 fps, ~ 23000 kbps
Аудио#1: Русский DTS 5.1 - 1536 kb/s - 48 kHz (Гланц)
Аудио#2: Русский DD 5.1 - 448 kb/s - 48 kHz (Дубляж)
Аудио#3: Английский DTS 5.1 - 1536 kb/s -48 kHz (Оригинал)
[/url]
[/url]
[/url]
[/url]
Общее
Уникальный идентификатор : 230418446045925971820263978851339448680 (0xAD58FA7ED6A9CD8D8EA83A78787DB168)
Полное имя : E:Mister & Missis Smit (2005) BD-Remux-1080p.mkv
Формат : Matroska
Версия формата : Version 1
Размер файла : 23,2 Гбайт
Продолжительность : 1 ч. 59 м.
Общий поток : 27,7 Мбит/сек
Дата кодирования : UTC 2008-03-27 15:50:23
Программа кодирования : mkvmerge v2.1.0 ('Another Place To Fall') built on Aug 19 2007 13:40:07
Библиотека кодирования : libebml v0.7.7 + libmatroska v0.8.1

Видео
Идентификатор : 1
Формат : AVC
Формат/Информация : Advanced Video Codec
Профиль формата : High@L4.1
Параметр CABAC формата : Да
Параметр ReFrames формата : 3 кадра
Идентификатор кодека : V_MPEG4/ISO/AVC
Продолжительность : 1 ч. 59 м.
Битрейт : 23,7 Мбит/сек
Ширина : 1920 пикселей
Высота : 1080 пикселей
Соотношение сторон : 16:9
Режим частоты кадров : Постоянный
Частота кадров : 23,976 кадра/сек
Цветовое пространство : YUV
Субдискретизация насыщенности : 4:2:0
Битовая глубина : 8 бит
Тип развёртки : Прогрессивная
Бит/(Пиксели*Кадры) : 0.476
Размер потока : 19,8 Гбайт (85%)
Язык : English
Default : Да
Forced : Нет

Аудио #1
Идентификатор : 2
Формат : DTS
Формат/Информация : Digital Theater Systems
Режим : 16
Параметр Endianness формата : Big
Идентификатор кодека : A_DTS
Продолжительность : 1 ч. 59 м.
Вид битрейта : Постоянный
Битрейт : 1510 Кбит/сек
Каналы : 6 каналов
Расположение каналов : Front: L C R, Side: L R, LFE
Частота : 48,0 КГц
Битовая глубина : 24 бит
Метод сжатия : С потерями
Размер потока : 1,27 Гбайт (5%)
Заголовок : DTS 5.1 by MIF
Язык : English
Default : Да
Forced : Нет

Аудио #2
Идентификатор : 3
Формат : DTS
Формат/Информация : Digital Theater Systems
Режим : 16
Параметр Endianness формата : Big
Идентификатор кодека : A_DTS
Продолжительность : 1 ч. 59 м.
Вид битрейта : Постоянный
Битрейт : 1510 Кбит/сек
Каналы : 6 каналов
Расположение каналов : Front: L C R, Side: L R, LFE
Частота : 48,0 КГц
Битовая глубина : 24 бит
Метод сжатия : С потерями
Размер потока : 1,27 Гбайт (5%)
Заголовок : DTS 5.1 (Mnogogolosiy) by MIF
Язык : Russian
Default : Нет
Forced : Нет

Аудио #3
Идентификатор : 4
Формат : AC-3
Формат/Информация : Audio Coding 3
Расширение режима : CM (complete main)
Параметр Endianness формата : Big
Идентификатор кодека : A_AC3
Продолжительность : 1 ч. 59 м.
Вид битрейта : Постоянный
Битрейт : 448 Кбит/сек
Каналы : 6 каналов
Расположение каналов : Front: L C R, Side: L R, LFE
Частота : 48,0 КГц
Битовая глубина : 16 бит
Метод сжатия : С потерями
Размер потока : 384 Мбайт (2%)
Заголовок : DD 5.1 (Dublyazh) by MIF
Язык : Russian
Default : Нет
Forced : Нет
pb.wtf



Скачать Мистер и миссис Смит через торрент http://pic.kartinco.top/images/6/fhe18.jpg Скачать фильм Мистер и миссис Смит через торрент бесплантно в хорошем качестве Описание: Джон и Джейн женаты не так долго, но уже утомлены своим браком. Им кажется, что они знают друг о друге все. Но есть кое-что, что ... 10 10 3
Info! Золотая раздача, скачанное не засчитывается.
Торрент: Зарегистрирован [2013-11-06 19:33] · скачан: 3 раз
Статус: √ проверено
Размер: 23.2 GB
Как cкачать? Как скачать Мистер и миссис Смит через торрент | qTorrent



Последний раз редактировалось: Артронах (2013-11-06 20:50), всего редактировалось 1 раз

28-11-2019 20:33  

Отключить всю рекламу на сайте

06-11-2013 20:28 Мистер и миссис Смит Скачать торрент  

Артронах
Не открывается постер, перезалейте на другой фотохост, и добавьте частоту Аудио.
pb.wtf



    Дорогой пользователь! Огромная просьба, поблагодарите релизера, оцените раздачу и оставьте свои комментарий, если Вы скачали Мистер и миссис Смит через торрент бесплатно! Внесите свою лепту в развитие PiratBit!
    Комментировать посты могут только пользователи прошедшие не сложную регистрацию
    Показать сообщения:    

    Мистер и миссис Смит через торрент
    Скачать бесплатно Мистер и миссис Смит
    Мистер и миссис Смит скачать торрент
    Мистер и миссис Смит смотреть онлайн
    Cкачать фильм Мистер и миссис Смит бесплатно
    Мистер и миссис Смит скачать торрент в хорошем качестве
    Мистер и миссис Смит смотреть онлайн бесплатно в хорошем качестве


    Вы не можете начинать темы
    Вы не можете отвечать на сообщения
    Вы не можете редактировать свои сообщения
    Вы не можете удалять свои сообщения
    Вы не можете голосовать в опросах
    Вы не можете прикреплять файлы к сообщениям
    Вы можете скачивать файлы