2 сезон

iTunes

MVO

1

2 сезон

iTunes

iTunes

1 сезон

RePack

30

Ultimate

ВАЖНО

ИГРА 18+

pack

RePack

MK11
pack

Легкие деньги

RePack

jed

RePack

fifa19

RePack

RDR2

RePack

NEED FOR SPEED™ PAYBACK

4 сезон

9 сезон

Бесстыжие 9 сезон

Все сериалы

все сериалы на PB.wtf

RePack

FAR CRY 5

Anonymous, добрый вечер, мы не успеваем собрать деньги на оплату серверов за декабрь и январь, помогите нам пожалуйста в это трудное время. В качестве благодарности мы отключим Вам всю рекламу на сайте (укажите свой ник в строку Ваше имя)!

×
  
Magnet ссылка

Наемный убийца / Bounty Killer (Генри Сэйн / Henry Saine) [2013 г., Боевик, BDRip-AVC, Профессиональный многоголосый] pb.wtf

Наемный убийца через торрент pb.wtf

Размер: 1.55 GB | Добавлен: 7 лет 2 мес. назад | Торрент скачан:1770 раз
Скачать  

07-11-2013 16:52 Наемный убийца Скачать торрент  

Наемный убийца / Bounty Killer
Год выпуска: 2013
Страна: США / Just Chorizo Productions, Kickstart Productions
Жанр: Боевик,
Продолжительность: 01:32:40
Перевод: Профессиональный многоголосый
Субтитры: Английские

Режиссер: Генри Сэйн / Henry Saine



В ролях: Мэттью Мэрсден, Кристанна Локен, Кристиан Питре, Барак Хардли, Абрахам Бенруби, Гэри Бьюзи, Беверли Д’Анджело, Ив, Кевин МакНэлли, Алекса Вега, Джолин Андерсен, Чести Баллестерос, Ивар Броггер, Тайра Колар, Уилл Коллье, Робби Дэвис, Винс Дйер, Алекс Хюн, Райан Кинг, Эвертон Лоуренс, Джефф Мичам, Джессика Мераз, Сун Хи Ньюболд, Минди Робинсон, Алекс Сколари, Роберт Тарпиниан, Кэлвин Теннер, Мелвин Теннер, Мэттью Уиллиг,

Описание: Спустя двадцать лет после начала Корпоративной Мировой войны, некогда цветущая и плодородная планета превратилась в выжженную пустыню, усеянную полуразрушенными останками людских поселений. Среди непрекращающейся тьмы и разрухи на свет появился Совет Девяти Роз, призванный уничтожить всё, что хоть отдалённо напоминает о корпорациях. Так началась эпоха наёмных убийц, охотящихся за «белыми воротничками».

Качество: BDRip-AVC
Формат: MKV
Видео кодек: H.264
Аудио кодек: AC3
Видео: 1032x430 (2,40:1), 23,976 fps, 1823 Кbps, 0.171 bit/pixel
Аудио #1: 48 kHz, AC3 Dolby Digital, 2/0 (L,C) ch, 192.00 kbps | MVO
Аудио #2: 48 kHz, AC3 Dolby Digital, 3/2 (L,C,R,l,r) + LFE ch, 384.00 kbps| ENG

Релиз группы:
Автор рипа: potroks





Общее
Уникальный идентификатор : 244292589867639163109354651268164322496 (0xB7C90A994EEF532C90FE12F5E68784C0)
Полное имя : Naemnuy.Ubijtsa.2013.x264.DUAL.BDRip.x264.-HELLYWOOD.mkv
Формат : Matroska
Версия формата : Version 4 / Version 2
Размер файла : 1,55 Гбайт
Продолжительность : 1 ч. 32 м.
Общий поток : 2400 Кбит/сек
Название фильма : HELLYWOOD - rip by potroks
Дата кодирования : UTC 2013-10-29 17:16:42
Программа кодирования : mkvmerge v5.9.0 ('On The Loose') built on Dec 15 2012 16:39:58
Библиотека кодирования : libebml v1.3.0 + libmatroska v1.4.0

Видео
Идентификатор : 1
Формат : AVC
Формат/Информация : Advanced Video Codec
Профиль формата : High@L4.1
Параметр CABAC формата : Да
Параметр ReFrames формата : 10 кадров
Идентификатор кодека : V_MPEG4/ISO/AVC
Продолжительность : 1 ч. 32 м.
Битрейт : 1823 Кбит/сек
Ширина : 1032 пикселя
Высота : 430 пикселей
Соотношение сторон : 2,40:1
Режим частоты кадров : Постоянный
Частота кадров : 23,976 кадра/сек
Цветовое пространство : YUV
Субдискретизация насыщенности : 4:2:0
Битовая глубина : 8 бит
Тип развёртки : Прогрессивная
Бит/(Пиксели*Кадры) : 0.171
Размер потока : 1,15 Гбайт (74%)
Заголовок : Bounty Killer
Библиотека кодирования : x264 core 130 r2273 b3065e6
Настройки программы : cabac=1 / ref=10 / deblock=1:-2:-2 / analyse=0x3:0x133 / me=umh / subme=11 / psy=1 / psy_rd=1.05:0.02 / mixed_ref=1 / me_range=48 / chroma_me=1 / trellis=2 / 8x8dct=1 / cqm=0 / deadzone=21,11 / fast_pskip=0 / chroma_qp_offset=-3 / threads=9 / lookahead_threads=2 / sliced_threads=0 / nr=0 / decimate=0 / interlaced=0 / bluray_compat=0 / constrained_intra=0 / bframes=11 / b_pyramid=2 / b_adapt=2 / b_bias=0 / direct=3 / weightb=1 / open_gop=0 / weightp=2 / keyint=250 / keyint_min=23 / scenecut=40 / intra_refresh=0 / rc_lookahead=60 / rc=2pass / mbtree=0 / bitrate=1823 / ratetol=1.0 / qcomp=0.70 / qpmin=0 / qpmax=69 / qpstep=4 / cplxblur=20.0 / qblur=0.5 / vbv_maxrate=20000 / vbv_bufsize=20000 / nal_hrd=none / ip_ratio=1.35 / pb_ratio=1.25 / aq=1:0.80
Язык : English
Default : Да
Forced : Нет

Аудио #1
Идентификатор : 2
Формат : AC-3
Формат/Информация : Audio Coding 3
Расширение режима : CM (complete main)
Параметр Endianness формата : Big
Идентификатор кодека : A_AC3
Продолжительность : 1 ч. 32 м.
Вид битрейта : Постоянный
Битрейт : 192 Кбит/сек
Каналы : 2 канала
Расположение каналов : Front: L R
Частота : 48,0 КГц
Битовая глубина : 16 бит
Метод сжатия : С потерями
Размер потока : 127 Мбайт (8%)
Заголовок : MVO | DD 2.0 @ 192 kbps
Язык : Russian
Default : Да
Forced : Да

Аудио #2
Идентификатор : 3
Формат : AC-3
Формат/Информация : Audio Coding 3
Расширение режима : CM (complete main)
Параметр Endianness формата : Big
Идентификатор кодека : A_AC3
Продолжительность : 1 ч. 32 м.
Вид битрейта : Постоянный
Битрейт : 384 Кбит/сек
Каналы : 6 каналов
Расположение каналов : Front: L C R, Side: L R, LFE
Частота : 48,0 КГц
Битовая глубина : 16 бит
Метод сжатия : С потерями
Размер потока : 255 Мбайт (16%)
Заголовок : Original | DD 5.1 @ 384 kbps
Язык : English
Default : Нет
Forced : Нет

Текст
Идентификатор : 4
Формат : UTF-8
Идентификатор кодека : S_TEXT/UTF8
Идентификатор кодека/Информация : UTF-8 Plain Text
Язык : English
Default : Нет
Forced : Нет

Меню
00:00:00.000 : en:(01)00:00:00:000
00:07:40.334 : en:(02)00:07:40:334
00:16:59.935 : en:(03)00:16:59:935
00:25:05.503 : en:(04)00:25:05:503
00:32:23.942 : en:(05)00:32:23:942
00:39:07.178 : en:(06)00:39:07:178
00:49:42.729 : en:(07)00:49:42:729
00:56:13.787 : en:(08)00:56:13:787
01:03:16.125 : en:(09)01:03:16:125
01:13:51.260 : en:(10)01:13:51:260
01:20:00.921 : en:(11)01:20:00:921
01:26:49.120 : en:(12)01:26:49:120
01:32:40.012 : en:(13)01:32:40:012

pb.wtf



Скачать Наемный убийца через торрент http://i60.fastpic.ru/big/2013/1107/54/8998e98d7b0aaca640b84f592ec50a54.png Скачать фильм Наемный убийца через торрент бесплантно в хорошем качестве Описание: Спустя двадцать лет после начала Корпоративной Мировой войны, некогда цветущая и плодородная планета превратилась в выжженную ... 9.8 10 48
Info! Золотая раздача, скачанное не засчитывается.
Торрент: Зарегистрирован [2013-11-07 17:15] · скачан: 1 770 раз
Статус: √ проверено
Размер: 1.55 GB
Как cкачать? Как скачать Наемный убийца через торрент | UTorrent

% Раздел Тема Автор DL S | L
Фильмы (Blu-ray, BD-Remux, HDDVD) [ 16.35 GB ] Наемный убийца / Bounty Killer [2013 BDRemux 1080p] MVO + Sub Eng + Original Eng Ворон Скачать
1 | 0
Фильмы 2013 [DVDrip, WEB-DLRip, HDrip] [ 1.46 GB ] Наемный убийца / Bounty Killer [2013 HDRip многоголосый закадровый ] coc900 Скачать
1 | 0
Фильмы 2013 [DVDrip, WEB-DLRip, HDrip] [ 1.37 GB ] Наемный убийца / Bounty Killer [2013 HDRip MVO] лисяра Скачать
1 | 0

28-11-2019 20:33  

Отключить всю рекламу на сайте

07-11-2013 17:33 Наемный убийца Скачать торрент  

potroks
скрин плизpb.wtf



07-11-2013 19:38 Наемный убийца Скачать торрент  

ну как фильм,кто смотрел?pb.wtf



07-11-2013 19:53 Наемный убийца Скачать торрент  

marrli писал(а):

ну как фильм,кто смотрел?

Судя па рейтингу кинопоиска не особо,,,,pb.wtf



07-11-2013 19:57 Наемный убийца Скачать торрент  


  pb.wtf



29-11-2013 19:29 Наемный убийца Скачать торрент  

Лёганький трешак про лав стори в стиле харлей дэвидсон икм.
Буду раздавать...
pb.wtf



11-12-2013 15:06 Наемный убийца Скачать торрент  

посмотрим что за фильм. спасибоpb.wtf



    Дорогой пользователь! Огромная просьба, поблагодарите релизера, оцените раздачу и оставьте свои комментарий, если Вы скачали Наемный убийца через торрент бесплатно! Внесите свою лепту в развитие PiratBit!
    Комментировать посты могут только пользователи прошедшие не сложную регистрацию
    Показать сообщения:    

    Наемный убийца через торрент
    Скачать бесплатно Наемный убийца
    Наемный убийца скачать торрент
    Наемный убийца смотреть онлайн
    Cкачать фильм Наемный убийца бесплатно
    Наемный убийца скачать торрент в хорошем качестве
    Наемный убийца смотреть онлайн бесплатно в хорошем качестве


    Вы не можете начинать темы
    Вы не можете отвечать на сообщения
    Вы не можете редактировать свои сообщения
    Вы не можете удалять свои сообщения
    Вы не можете голосовать в опросах
    Вы не можете прикреплять файлы к сообщениям
    Вы можете скачивать файлы