Ссылка на приватное зеркало нашего сайта всего за 1$. Внимание количество ограничено!!!

2 сезон

iTunes

iTunes

1

iTunes

iTunes

iTunes

WEBRip

iTunes

30
pack

Вам бонус

ВАЖНО

!!Акция!!

Alien_RageХит недели

RePack

Horizon Zero Dawn

ИГРА 18+

pack

RePack

jed

!!Акция!!

Alien_Rage

RePack

fifa19

RePack

Assassins Creed: Odyssey

RePack

NEED FOR SPEED™ PAYBACK

4 сезон

9 сезон

Бесстыжие 9 сезон

Все сериалы

все сериалы на PB.wtf

RePack

FAR CRY 5
  

Блэки летит на Луну / Black to the Moon 3D (Франсис Нилсен / Francis Nielsen) [2013, мультфильм, комедия, приключения, DVD5] R5 pb.wtf

Блэки летит на Луну через торрент pb.wtf

Размер: 4.36 GB | Добавлен: 6 лет 10 мес. назад | Торрент скачан:57 раз
Скачать  

07-11-2013 19:59 Блэки летит на Луну Скачать торрент  


Блэки летит на Луну / Black to the Moon 3D
Страна: Испания, Италия, Франция
Студия: Art'Mell, Baleuko S.L., Film Investment Piedmont (FIP), Lumiq Studios, Talape
Жанр: мультфильм, комедия, приключения
Год выпуска: 2013
Мировая премьера: 15 февраля 2013
Российская премьера: 6 июня 2013, 3D
Дата выхода DVD: 7 ноября 2013
Дата выхода Blu-Ray: 7 ноября 2013
Продолжительность: 01:17:13
Перевод: Профессиональный (дублированный) [Лицензия]
Cубтитры: нет
Оригинальная аудиодорожка: нет
Режиссер: Франсис Нилсен / Francis Nielsen
Роли озвучивали: Кристина Хьюз, Питер Хадсон, Кэролин Фаллин, Брайан Вермейр, Бобби Джексон
Роли дублировали: Александр Лаенко, Александр Фильченко, Анна Балицкая, Анна Кикас, Василий Марков
Описание: Овечка Блэки — настоящая чума для всей фермы. Она — постоянный нарушитель спокойствия, энергии у нее на десятерых. Она — черная овечка и очень гордится этим, потому что не хочет быть такой, как все. Животные-соседи называют ее «очаровательным бедствием». Иногда они считают Блэки невыносимой, но в конце концов стараются помочь в осуществлении ее безумных фантазий. И сейчас она просто одержима идеей полета на Луну. А о чем мечтает пес Кануто, охраняющий овец? О том, чтобы стать самым великим псом-охранником овец всех времен. Для этого он учится и трудится как проклятый. Он милый и хороший, и все просто обожают его. Ему нравится тишина и покой. И как такой правильный пес мог полюбить такую вздорную овечку? Несмотря на то, что он и слышать ничего не хотел о ракетах, Кануто решил поддержать свою обожаемую Блэки.
В ходе подготовки полета в какие только приключения они не попадут и каких только героев не встретят: корову — оперную певицу, волка — модного дизайнера, пауков-нелегалов, работающих на швейной фабрике, парочку птиц — участников реалити-шоу, овечку Пинки размером с Годзиллу, и главное — компанию собак, у которых уже есть ракета, практически готовая к запуску…

Бонусы: Трейлер, Анонсы

Релиз группы:
Качество: DVD5 R5
Формат: DVD-Video
Видео кодек: MPEG2
Аудио кодек: AC3
Видео: PAL 16:9 (720x576(0.652)) MPEG Video, 25,000 кадр/сек, 6764 Кбит/сек
Аудио: Russian (Dolby AC3, 6 ch) 384 Кбит/сек, 48,0 КГц



Title: Bleki.letit.na.lunu.2013.DVD5
Size: 4.36 Gb ( 4 570 982,00 KBytes ) - DVD-5
Enabled regions: 1, 2, 3, 4, 5, 6, 7, 8

VTS_01 :
Play Length: 00:00:05
Video: PAL 4:3 (720x576) VBR
Subtitles:
English
English

VTS_02 :
Play Length: 00:00:07
Video: PAL 16:9 (720x576) VBR, Auto Letterboxed
Audio:
Not specified (Dolby AC3, 6 ch)
Subtitles:
Not specified

VTS_03 :
Play Length: 01:17:13
Video: PAL 16:9 (720x576) VBR, Auto Letterboxed
Audio:
Russian (Dolby AC3, 6 ch)

VTS_04 :
Play Length: 00:02:33
Video: PAL 16:9 (720x576) VBR, Auto Letterboxed
Audio:
Not specified (Dolby AC3, 2 ch)
Not specified (Dolby AC3, 2 ch)
Subtitles:
Not specified

VTS_05 :
Play Length: 00:01:58
Video: PAL 16:9 (720x576) VBR, Auto Letterboxed
Audio:
Not specified (Dolby AC3, 2 ch)
Not specified (Dolby AC3, 2 ch)
Subtitles:
Not specified

VTS_06 :
Play Length: 00:03:00
Video: PAL 16:9 (720x576) VBR, Auto Letterboxed
Audio:
Not specified (Dolby AC3, 2 ch)
Not specified (Dolby AC3, 2 ch)
Subtitles:
Not specified

VTS_07 :
Play Length: 00:02:48
Video: PAL 16:9 (720x576) VBR, Auto Letterboxed
Audio:
Not specified (Dolby AC3, 2 ch)
Subtitles:
Not specified

* Menus Information *

VIDEO_TS Menu
Video:
PAL 16:9 (720x576) VBR
Auto Pan&Scan, Auto Letterboxed
English Language Unit :
Title Menu

VTS_01 Menu
Video:
PAL 16:9 (720x576) VBR
Auto Letterboxed
English Language Unit :
Root Menu

VTS_02 Menu
Video:
PAL 4:3 (720x576) VBR
English Language Unit :
Root Menu

VTS_03 Menu
Video:
PAL 4:3 (720x576) VBR
English Language Unit :
Root Menu
Chapter (PTT) Menu

VTS_04 Menu
Video:
PAL 4:3 (720x576) VBR
English Language Unit :
Root Menu

VTS_05 Menu
Video:
PAL 4:3 (720x576) VBR
English Language Unit :
Root Menu

VTS_06 Menu
Video:
PAL 4:3 (720x576) VBR
English Language Unit :
Root Menu

VTS_07 Menu
Video:
PAL 4:3 (720x576) VBR
English Language Unit :
Root Menu
Общее
Полное имя : F:Новинки 2013Bleki.letit.na.lunu.2013.DVD5VIDEO_TSVTS_03_2.VOB
Формат : MPEG-PS
Размер файла : 1024 Мбайт
Продолжительность : 19 м.
Режим общего битрейта : Переменный
Общий поток : 7293 Кбит/сек

Видео
Идентификатор : 224 (0xE0)
Формат : MPEG Video
Версия формата : Version 2
Профиль формата : Main@Main
Параметр BVOP формата : Да
Параметр матрицы формата : По умолчанию
Параметр GOP формата : M=3, N=12
Продолжительность : 19 м.
Вид битрейта : Переменный
Битрейт : 6764 Кбит/сек
Максимальный битрейт : 8000 Кбит/сек
Ширина : 720 пикселей
Высота : 576 пикселей
Соотношение сторон : 16:9
Частота кадров : 25,000 кадров/сек
Стандарт вещания : PAL
Цветовое пространство : YUV
Субдискретизация насыщенности : 4:2:0
Битовая глубина : 8 бит
Тип развёртки : Прогрессивная
Метод сжатия : С потерями
Бит/(Пиксели*Кадры) : 0.652
Временной код первого кадра : 00:19:38:22
Оригинал временного кода : Group of pictures header
Размер потока : 950 Мбайт (93%)

Аудио
Идентификатор : 189 (0xBD)-128 (0x80)
Формат : AC-3
Формат/Информация : Audio Coding 3
Расширение режима : CM (complete main)
Параметр Endianness формата : Big
Режим смешивания : DVD-Video
Продолжительность : 19 м.
Вид битрейта : Постоянный
Битрейт : 384 Кбит/сек
Каналы : 6 каналов
Расположение каналов : Front: L C R, Side: L R, LFE
Частота : 48,0 КГц
Битовая глубина : 16 бит
Метод сжатия : С потерями
Задержка видео : -368 мс.
Размер потока : 53,9 Мбайт (5%)










pb.wtf



Скачать Блэки летит на Луну через торрент http://i58.fastpic.ru/big/2013/1107/ec/7162cf04f69de19e55e15b70caed2aec.png Скачать фильм Блэки летит на Луну через торрент бесплантно в хорошем качестве Описание: Овечка Блэки — настоящая чума для всей фермы. Она — постоянный нарушитель спокойствия, энергии у нее на десятерых. Она — черная ... 10 10 5
Info! Золотая раздача, скачанное не засчитывается.
Торрент: Зарегистрирован [2013-11-07 19:59] · скачан: 57 раз
Статус: √ проверено
Размер: 4.36 GB
Как cкачать? Как скачать Блэки летит на Луну через торрент | qTorrent

28-11-2019 20:33  

Отключить всю рекламу на сайте

07-11-2013 20:19 Блэки летит на Луну Скачать торрент  

no no мне не понравился.. для дошколят может и потянет. слабый мультик.pb.wtf



    Дорогой пользователь! Огромная просьба, поблагодарите релизера, оцените раздачу и оставьте свои комментарий, если Вы скачали Блэки летит на Луну через торрент бесплатно! Внесите свою лепту в развитие PiratBit!
    Комментировать посты могут только пользователи прошедшие не сложную регистрацию
    Показать сообщения:    

    Блэки летит на Луну через торрент
    Скачать бесплатно Блэки летит на Луну
    Блэки летит на Луну скачать торрент
    Блэки летит на Луну смотреть онлайн
    Cкачать фильм Блэки летит на Луну бесплатно
    Блэки летит на Луну скачать торрент в хорошем качестве
    Блэки летит на Луну смотреть онлайн бесплатно в хорошем качестве


    Вы не можете начинать темы
    Вы не можете отвечать на сообщения
    Вы не можете редактировать свои сообщения
    Вы не можете удалять свои сообщения
    Вы не можете голосовать в опросах
    Вы не можете прикреплять файлы к сообщениям
    Вы можете скачивать файлы