2 сезон

iTunes

MVO

1

2 сезон

iTunes

iTunes

1 сезон

RePack

30

Ultimate

ВАЖНО

ИГРА 18+

pack

RePack

MK11
pack

Легкие деньги

RePack

jed

RePack

fifa19

RePack

RDR2

RePack

NEED FOR SPEED™ PAYBACK

4 сезон

9 сезон

Бесстыжие 9 сезон

Все сериалы

все сериалы на PB.wtf

RePack

FAR CRY 5

Anonymous, добрый день, мы не успеваем собрать деньги на оплату серверов за декабрь и январь, помогите нам пожалуйста в это трудное время. В качестве благодарности мы отключим Вам всю рекламу на сайте (укажите свой ник в строку Ваше имя)!

×
  
Magnet ссылка

Большая свадьба / The Big Wedding (Джастин Закэм / Justin Zackham) [ 2013 , США , комедия , HDRip ] DUB (лицензия) pb.wtf

Большая свадьба через торрент pb.wtf

Размер: 745 MB | Добавлен: 7 лет 2 мес. назад | Торрент скачан:584 раза
Скачать  

13-08-2013 23:37 Большая свадьба Скачать торрент  

Большая свадьба / The Big WeddingГод выпуска: 2013
Страна: США
Жанр: комедия
Продолжительность: 01:29:32
Перевод: Профессиональный (полное дублирование) (Лицензия)
Субтитры: Нет
Режиссер: Джастин Закэм / Justin Zackham
В ролях: Роберт Де Ниро (Don), Дайан Китон (Ellie), Кэтрин Хайгл (Lyla), Сьюзен Сарандон (Bebe), Бен Барнс (Alejandro), Аманда Сайфред (Missy), Тофер Грейс (Jared), Ана Айора (Nuria), Робин Уильямс (Father Moinighan), Патриция Рэй (Madonna), Кристин Эберсоул (Muffin), Дэвид Раш (Barry)
Описание:
История о современной семье, пытающейся пережить выходные свадебного торжества, которые могут обернуться полным крахом для них. К удивлению своих детей и друзей давно разведенные Дон и Элли Гриффин вынуждены притворяться счастливыми ради свадьбы своего приемного сына, после того как его ультраконсервативная биологическая мать неожиданно решает пролететь через пол мира, чтобы принять участие в этом торжестве...
Рейтинг
kinopoisk.ru: 6.032 (3380)
imdb.com: 5.20 (6 621)
MPAA: R - Лицам до 17 лет обязательно присутствие взрослого
Качество: HDRip
Формат: AVI
Видео кодек: XviD
Аудио кодек: MP3
Видео: XviD, 720x304 (2.35:1), 1025 kbps, 23,976 fps, 0,195 bpp
Аудио: MP3 / 2.0 / 48 kHz / 128 kbps /
General
Complete name : D:ТорентыThe.Big.Wedding.2013_HDRip_r5_[scarabey.org].avi
Format : AVI
Format/Info : Audio Video Interleave
File size : 745 MiB
Duration : 1h 29mn
Overall bit rate : 1 163 Kbps
Writing application : VirtualDubMod 1.5.10.2 (build 2540/release)
Writing library : VirtualDubMod build 2540/release

Video
ID : 0
Format : MPEG-4 Visual
Format profile : Advanced Simple@L5
Format settings, BVOP : 1
Format settings, QPel : No
Format settings, GMC : No warppoints
Format settings, Matrix : Custom
Codec ID : XVID
Codec ID/Hint : XviD
Duration : 1h 29mn
Bit rate : 1 026 Kbps
Width : 720 pixels
Height : 304 pixels
Display aspect ratio : 2.35:1
Frame rate : 23.976 fps
Color space : YUV
Chroma subsampling : 4:2:0
Bit depth : 8 bits
Scan type : Progressive
Compression mode : Lossy
Bits/(Pixel*Frame) : 0.195
Stream size : 657 MiB (88%)
Writing library : XviD 73

Audio
ID : 1
Format : MPEG Audio
Format version : Version 1
Format profile : Layer 3
Codec ID : 55
Codec ID/Hint : MP3
Duration : 1h 29mn
Bit rate mode : Constant
Bit rate : 128 Kbps
Channel(s) : 2 channels
Sampling rate : 48.0 KHz
Compression mode : Lossy
Stream size : 82.0 MiB (11%)
Alignment : Aligned on interleaves
Interleave, duration : 42 ms (1.00 video frame)
Interleave, preload duration : 504 ms
Writing library : LAME3.99r
Encoding settings : -m s -V 4 -q 2 -lowpass 17 -b 128
скриншот   скриншот   скриншот  
pb.wtf



Скачать Большая свадьба через торрент http://i6.imageban.ru/out/2013/08/14/d5eb77318e28a8b1618438a856bfc9e0.png Скачать фильм Большая свадьба через торрент бесплантно в хорошем качестве Описание: История о современной семье, пытающейся пережить выходные свадебного торжества, которые могут обернуться полным крахом для них. К ... 9.1 10 21
Info! Золотая раздача, скачанное не засчитывается.
Торрент: Зарегистрирован [2013-11-08 07:34] · скачан: 584 раз
Статус: √ проверено
Размер: 745 MB
Как cкачать? Как скачать Большая свадьба через торрент | UTorrent

% Раздел Тема Автор DL S | L
Фильмы (Blu-ray, BD-Remux, HDDVD) [ 16.41 GB ] Большая свадьба / The Big Wedding [2013 BD-Remux USA Transfer ] Seedtank Скачать
1 | 0
Фильмы 2013 [DVDrip, WEB-DLRip, HDrip] [ 1.45 GB ] Большая свадьба / The Big Wedding [2013 HDRip лицензия] Ворон Скачать
1 | 0
Фильмы [HD 720p, 1080p] (Хороший звук DUB, MVO) [ 5.24 GB ] Большая свадьба / The Big Wedding [ 2013 BDRip 720p] DUB Ворон Скачать
1 | 0

28-11-2019 20:33  

Отключить всю рекламу на сайте

14-08-2013 13:24 Большая свадьба Скачать торрент  

Как фильм?pb.wtf



08-11-2013 10:40 Большая свадьба Скачать торрент  

так его недавно по телеку показывали , а так норм фильмец :rofle:pb.wtf



    Дорогой пользователь! Огромная просьба, поблагодарите релизера, оцените раздачу и оставьте свои комментарий, если Вы скачали Большая свадьба через торрент бесплатно! Внесите свою лепту в развитие PiratBit!
    Комментировать посты могут только пользователи прошедшие не сложную регистрацию
    Показать сообщения:    

    Большая свадьба через торрент
    Скачать бесплатно Большая свадьба
    Большая свадьба скачать торрент
    Большая свадьба смотреть онлайн
    Cкачать фильм Большая свадьба бесплатно
    Большая свадьба скачать торрент в хорошем качестве
    Большая свадьба смотреть онлайн бесплатно в хорошем качестве


    Вы не можете начинать темы
    Вы не можете отвечать на сообщения
    Вы не можете редактировать свои сообщения
    Вы не можете удалять свои сообщения
    Вы не можете голосовать в опросах
    Вы не можете прикреплять файлы к сообщениям
    Вы можете скачивать файлы